<?xml version="1.0" standalone="no"?>
<!DOCTYPE svg PUBLIC "-//W3C//DTD SVG 1.1//EN" "http://www.w3.org/Graphics/SVG/1.1/DTD/svg11.dtd" >
<svg xmlns="http://www.w3.org/2000/svg">
<metadata>Generated by IcoMoon</metadata>
<defs>
<font id="skinicon-thin" horiz-adv-x="1024">
<font-face units-per-em="1024" ascent="960" descent="-64" />
<missing-glyph horiz-adv-x="1024" />
<glyph unicode="&#x20;" horiz-adv-x="512" d="" />
<glyph unicode="&#xe900;" glyph-name="arrow-down" d="M512 853.333v-679.822l293.547 293.547 39.822-40.391-361.813-361.813-361.813 361.813 39.822 40.391 293.547-293.547v679.822h56.889z" />
<glyph unicode="&#xe901;" glyph-name="arrow-left" d="M910.222 455.111h-679.822l293.547 293.547-40.391 39.822-361.813-361.813 361.813-361.813 40.391 39.822-293.547 293.547h679.822v56.889z" />
<glyph unicode="&#xe902;" glyph-name="arrow-right" d="M113.778 455.111h679.822l-293.547 293.547 40.391 39.822 361.813-361.813-361.813-361.813-40.391 39.822 293.547 293.547h-679.822v56.889z" />
<glyph unicode="&#xe903;" glyph-name="arrow-up" d="M512 56.889v679.822l293.547-293.547 39.822 40.391-361.813 361.813-361.813-361.813 39.822-40.391 293.547 293.547v-679.822h56.889z" />
<glyph unicode="&#xe904;" glyph-name="attachment" d="M810.098 471.609l-341.333-338.489c-30.891-30.834-73.5-49.892-120.604-49.892-94.322 0-170.78 76.459-170.78 170.78 0 47.218 19.172 89.998 50.176 120.889l418.702 418.702c20.594 20.594 49.038 33.337 80.498 33.337 62.862 0 113.835-50.972 113.835-113.835 0-31.46-12.743-59.904-33.337-80.498v0l-415.858-418.702c-10.297-10.411-24.576-16.839-40.391-16.839s-30.094 6.428-40.391 16.839v0c-10.24 10.297-16.555 24.462-16.555 40.107s6.315 29.81 16.555 40.107l258.276 258.276-40.391 39.822-257.707-257.707c-21.22-20.878-34.361-49.835-34.361-81.92 0-63.431 51.428-114.859 114.859-114.859 31.346 0 59.79 12.572 80.498 32.939l421.547 421.547c31.004 30.891 50.176 73.671 50.176 120.889 0 94.322-76.459 170.78-170.78 170.78-47.104 0-89.714-19.058-120.604-49.892v0l-422.116-419.271c-38.684-40.732-62.464-95.858-62.464-156.615 0-125.668 101.888-227.556 227.556-227.556 60.871 0 116.167 23.893 156.956 62.805l-0.114-0.114 341.333 338.489z" />
<glyph unicode="&#xe905;" glyph-name="audio" d="M284.444 786.773v-563.769c-12.743 3.982-27.477 6.258-42.667 6.258s-29.924-2.276-43.748-6.542l1.081 0.284c-73.899-16.612-130.219-76.004-142.108-150.3l-0.114-1.024c0-63.147 63.716-96.711 142.222-75.662 74.183 16.384 130.731 76.231 142.108 150.869l0.114 1.024v426.667l455.111 122.88v-335.644c-12.8 3.925-27.477 6.201-42.667 6.201s-29.867-2.276-43.748-6.485l1.081 0.284c-74.183-16.384-130.731-76.231-142.108-150.869l-0.114-1.024c0-62.578 63.716-96.711 142.222-75.662 73.557 16.441 129.764 75.378 142.052 149.106l0.171 1.081v655.929zM284.444 147.911c0-32.996-42.667-81.92-100.124-97.28-7.339-2.503-15.758-3.982-24.576-3.982-14.222 0-27.477 3.812-38.969 10.411l0.398-0.228c-4.494 3.413-7.339 8.761-7.396 14.791v0c0 32.996 42.667 81.351 100.124 96.711 6.884 1.536 14.734 2.446 22.812 2.446 2.162 0 4.324-0.057 6.485-0.171h-0.284c0.284 0 0.626 0 1.024 0 7.964 0 15.644-1.252 22.869-3.584l-0.512 0.171 18.204-7.396zM796.444 284.444c0-32.996-42.667-81.351-100.124-96.711-8.021-3.072-17.351-4.836-27.079-4.836-13.198 0-25.6 3.243-36.523 8.988l0.455-0.228c-4.551 3.698-7.396 9.273-7.396 15.531 0 0.341 0 0.683 0 1.024v-0.057c0 32.996 42.667 81.92 100.124 97.28 8.59 2.219 18.546 3.698 28.786 3.982h0.228c0.284 0 0.626 0 1.024 0 7.964 0 15.644-1.252 22.869-3.584l-0.512 0.171 18.204-7.396zM796.444 756.622l-455.111-123.449v109.796l455.111 123.449z" />
<glyph unicode="&#xe906;" glyph-name="bookmark" d="M796.444 853.333v-731.022l-280.462 236.089-36.409-30.151-252.018-207.644v732.729h568.889zM853.333 910.222h-682.667v-910.222l345.316 284.444 337.351-284.444v910.222z" />
<glyph unicode="&#xe907;" glyph-name="calendar" d="M796.444 853.333v56.889h-170.667v-56.889h-227.556v56.889h-170.667v-56.889h-170.667v-853.333h910.222v853.333zM910.222 56.889h-796.444v568.889h796.444zM910.222 682.667h-796.444v113.778h113.778v-56.889h170.667v56.889h227.556v-56.889h170.667v56.889h113.778zM341.333 796.444h-56.889v56.889h56.889zM739.556 796.444h-56.889v56.889h56.889zM284.444 455.111h-56.889v56.889h56.889zM455.111 455.111h-56.889v56.889h56.889zM625.778 455.111h-56.889v56.889h56.889zM796.444 455.111h-56.889v56.889h56.889zM284.444 284.444h-56.889v56.889h56.889zM455.111 284.444h-56.889v56.889h56.889zM625.778 284.444h-56.889v56.889h56.889zM796.444 284.444h-56.889v56.889h56.889zM284.444 113.778h-56.889v56.889h56.889zM455.111 113.778h-56.889v56.889h56.889zM625.778 113.778h-56.889v56.889h56.889z" />
<glyph unicode="&#xe908;" glyph-name="camera" d="M512 156.444c-133.518 0-241.778 108.26-241.778 241.778s108.26 241.778 241.778 241.778c133.518 0 241.778-108.26 241.778-241.778v0c-0.341-133.404-108.373-241.436-241.721-241.778h-0.057zM512 583.111c-102.116 0-184.889-82.773-184.889-184.889s82.773-184.889 184.889-184.889c102.116 0 184.889 82.773 184.889 184.889v0c-0.341 102.002-82.887 184.548-184.832 184.889h-0.057zM881.778 56.889h-739.556c-47.104 0-85.333 38.229-85.333 85.333v0 455.111c0 47.104 38.229 85.333 85.333 85.333v0h113.778l20.48 101.831c8.135 39.196 42.098 68.267 83.001 68.836h304.981c41.188-0.284 75.435-29.468 83.513-68.267l0.114-0.569 20.48-101.831h113.778c46.876-0.341 84.764-38.4 84.764-85.333 0 0 0 0 0 0v0-455.111c0-47.104-38.229-85.333-85.333-85.333v0zM142.222 625.778c-15.701 0-28.444-12.743-28.444-28.444v0-455.111c0-15.701 12.743-28.444 28.444-28.444v0h739.556c15.701 0 28.444 12.743 28.444 28.444v0 455.111c0 15.701-12.743 28.444-28.444 28.444v0h-159.858l-29.582 147.911c-2.731 13.084-14.165 22.756-27.876 22.756 0 0 0 0 0 0h-304.924c-13.881-0.057-25.372-10.012-27.876-23.154v-0.171l-29.582-147.342z" />
<glyph unicode="&#xe909;" glyph-name="caret-down" d="M242.347 527.36l39.822 39.822 201.387-200.818 201.387 200.818 39.822-39.822-241.209-241.209-241.209 241.209z" />
<glyph unicode="&#xe90a;" glyph-name="caret-large-down" d="M512 208.213v0l-455.111 455.111 38.684 38.684 416.427-417.564 416.427 416.427 38.684-38.684-455.111-455.111z" />
<glyph unicode="&#xe90b;" glyph-name="caret-large-left" d="M265.102 455.111v0l455.111 455.111 38.684-38.684-417.564-416.427 416.427-416.427-38.684-38.684-455.111 455.111z" />
<glyph unicode="&#xe90c;" glyph-name="caret-large-right" d="M758.898 455.111l-455.111-455.111-38.684 38.684 417.564 416.427-417.564 416.427 38.684 38.684 455.111-455.111z" />
<glyph unicode="&#xe90d;" glyph-name="caret-large-up" d="M512 702.009l455.111-455.111-38.684-38.684-416.427 417.564-416.427-417.564-38.684 38.684 455.111 455.111z" />
<glyph unicode="&#xe90e;" glyph-name="caret-left" d="M584.249 667.875l39.822-39.822-200.818-201.387 200.818-201.387-39.822-39.822-241.209 241.209 241.209 241.209z" />
<glyph unicode="&#xe90f;" glyph-name="caret-right" d="M439.751 667.875l-39.822-39.822 200.818-201.387-200.818-201.387 39.822-39.822 241.209 241.209-241.209 241.209z" />
<glyph unicode="&#xe910;" glyph-name="caret-up" d="M242.347 382.862l39.822-39.822 201.387 200.818 201.387-200.818 39.822 39.822-241.209 241.209-241.209-241.209z" />
<glyph unicode="&#xe911;" glyph-name="cart-fotomoto" d="M967.111 967.111h-398.222c-31.403 0-56.889-25.486-56.889-56.889v0-284.444h-296.96l-44.373 170.667h-170.667v-56.889h128l113.778-455.111 29.013-113.778c-56.206-7.509-99.1-55.182-99.1-112.811 0-62.862 50.916-113.778 113.778-113.778s113.778 50.916 113.778 113.778c0 20.537-5.461 39.822-15.019 56.491l0.284-0.569h202.524c-9.557-16.327-15.246-35.897-15.246-56.832 0-62.862 50.916-113.778 113.778-113.778s113.778 50.916 113.778 113.778c0 62.862-50.916 113.778-113.778 113.778-1.024 0-2.105 0-3.129-0.057h-353.678l-28.444 113.778h467.627l42.667 170.667h156.444c31.403 0 56.889 25.486 56.889 56.889v0 398.222c0 31.403-25.486 56.889-56.889 56.889v0zM682.667 113.778c31.403 0 56.889-25.486 56.889-56.889s-25.486-56.889-56.889-56.889c-31.403 0-56.889 25.486-56.889 56.889v0c0 31.403 25.486 56.889 56.889 56.889v0zM341.333 56.889c0-31.403-25.486-56.889-56.889-56.889s-56.889 25.486-56.889 56.889c0 31.403 25.486 56.889 56.889 56.889v0c31.403 0 56.889-25.486 56.889-56.889v0zM723.627 341.333h-439.182l-56.889 227.556h284.444v-56.889c0-31.403 25.486-56.889 56.889-56.889v0h183.182zM880.071 568.889c-15.531 0.626-27.876 13.369-27.876 29.013 0 16.043 12.971 29.013 29.013 29.013s29.013-12.971 29.013-29.013v0c0 0 0 0 0 0 0-16.043-12.971-29.013-29.013-29.013-0.398 0-0.796 0-1.195 0h0.057zM880.071 796.444h-197.404v-56.889h170.667c15.701 0 28.444-12.743 28.444-28.444v0c0-15.701-12.743-28.444-28.444-28.444v0h-170.667v-85.333c0-15.701-12.743-28.444-28.444-28.444s-28.444 12.743-28.444 28.444v0 227.556c0 15.701 12.743 28.444 28.444 28.444v0h227.556c15.701 0 28.444-12.743 28.444-28.444v0c0-15.701-12.743-28.444-28.444-28.444v0z" />
<glyph unicode="&#xe912;" glyph-name="checkbox-checked" d="M883.484 910.222l-23.893-56.889h50.631v-796.444h-796.444v796.444h499.484l23.893 56.889h-580.267v-910.222h910.222v910.222h-83.627zM747.52 954.595l-239.502-577.991-262.258 108.658-22.187-52.338 262.827-109.227 52.907-21.618 21.618 52.338 239.502 578.56-52.907 21.618z" />
<glyph unicode="&#xe913;" glyph-name="checkmark" d="M781.084 765.155l49.493-28.444-284.444-492.658-56.889-98.987-98.418 56.889-197.404 113.778 28.444 49.493 246.329-142.222 28.444 49.493 284.444 492.658zM760.604 842.524l-312.889-541.582-246.329 142.222-87.609-147.911 246.329-142.222 151.893-85.333 85.333 147.911 312.889 541.582-147.342 85.333z" />
<glyph unicode="&#xe914;" glyph-name="close" d="M810.098 793.6l-298.098-298.098-298.098 298.098-40.391-40.391 298.098-298.098-298.098-298.098 40.391-40.391 298.098 298.098 298.098-298.098 40.391 40.391-298.098 298.098 298.098 298.098-40.391 40.391z" />
<glyph unicode="&#xe915;" glyph-name="comment" d="M227.556 16.498v211.058h-113.778v568.889h796.444v-568.889h-471.609zM170.667 739.555v-455.111h113.778v-130.276l130.276 130.276h438.613v455.111z" />
<glyph unicode="&#xe916;" glyph-name="connect" d="M739.556 853.333c62.862 0 113.778-50.916 113.778-113.778s-50.916-113.778-113.778-113.778c-62.862 0-113.778 50.916-113.778 113.778v0c0 62.862 50.916 113.778 113.778 113.778v0zM739.556 284.444c62.862 0 113.778-50.916 113.778-113.778s-50.916-113.778-113.778-113.778c-62.862 0-113.778 50.916-113.778 113.778v0c0 62.862 50.916 113.778 113.778 113.778v0zM246.898 568.889c62.862 0 113.778-50.916 113.778-113.778s-50.916-113.778-113.778-113.778c-62.862 0-113.778 50.916-113.778 113.778v0c0 62.862 50.916 113.778 113.778 113.778v0zM739.556 341.333c-52.565-0.228-99.499-24.235-130.617-61.724l-0.228-0.284-202.524 118.898c6.656 16.896 10.524 36.409 10.524 56.889s-3.868 39.993-10.866 57.97l0.398-1.081 202.524 113.778c31.516-37.433 78.393-61.042 130.788-61.042 94.265 0 170.667 76.402 170.667 170.667s-76.402 170.667-170.667 170.667c-92.786 0-168.277-74.069-170.61-166.286v-0.228c0.569-20.594 4.665-40.050 11.776-58.027l-0.398 1.138-202.524-118.898c-31.516 38.002-78.791 62.009-131.584 62.009-94.265 0-170.667-76.402-170.667-170.667s76.402-170.667 170.667-170.667c52.85 0 100.068 24.007 131.356 61.724l0.228 0.284 202.524-118.898c-6.713-16.839-10.809-36.295-11.378-56.661v-0.228c0-94.265 76.402-170.667 170.667-170.667s170.667 76.402 170.667 170.667c0 94.265-76.402 170.667-170.667 170.667v0z" />
<glyph unicode="&#xe917;" glyph-name="contract" d="M671.289 568.889h187.733v-56.889h-284.444v284.444h56.889v-187.164l311.182 311.182 40.391-39.822zM52.338 29.582l39.822-39.822 311.751 311.182v-187.164h56.889v284.444h-284.444v-56.889h187.164z" />
<glyph unicode="&#xe918;" glyph-name="copy" d="M227.556 796.444v-796.444h682.667v796.444zM853.333 56.889h-568.889v682.667h568.889zM113.778 910.222h568.889v-56.889h56.889v113.778h-682.667v-853.333h113.778v56.889h-56.889v739.556z" />
<glyph unicode="&#xe919;" glyph-name="cut" d="M284.444 625.778c-10.524-13.54-26.738-22.13-45.056-22.13-31.403 0-56.889 25.486-56.889 56.889s25.486 56.889 56.889 56.889c12.914 0 24.804-4.324 34.361-11.548l-0.114 0.114c13.824-10.468 22.642-26.965 22.642-45.454 0-13.141-4.437-25.259-11.947-34.873l0.114 0.114zM284.444 284.444c-10.524 13.54-26.738 22.13-45.056 22.13-31.403 0-56.889-25.486-56.889-56.889s25.486-56.889 56.889-56.889c12.914 0 24.804 4.324 34.361 11.548l-0.114-0.114c13.824 10.468 22.642 26.965 22.642 45.454 0 13.141-4.437 25.259-11.947 34.873l0.114-0.114zM603.591 455.111l347.022-266.809c-31.516-40.619-80.327-66.446-135.168-66.446-39.196 0-75.321 13.255-104.164 35.442l0.398-0.284-246.329 190.578-62.009-47.787c5.348-15.815 8.42-34.020 8.42-52.907 0-94.265-76.402-170.667-170.667-170.667s-170.667 76.402-170.667 170.667c0 94.094 76.174 170.439 170.212 170.667v0c11.321-0.114 22.357-1.138 33.052-3.015l-1.195 0.171 52.907 40.391-52.907 40.391c-9.5-1.707-20.537-2.731-31.744-2.844h-0.114c-94.094 0.228-170.212 76.572-170.212 170.667 0 94.265 76.402 170.667 170.667 170.667s170.667-76.402 170.667-170.667c0-18.887-3.072-37.092-8.761-54.101l0.341 1.195 62.009-47.787 248.604 190.578c28.444 21.959 64.569 35.157 103.765 35.157 54.841 0 103.652-25.884 134.884-66.048l0.284-0.398zM512 526.791l46.649-35.84 302.080 232.107c-12.8 5.404-27.648 8.533-43.236 8.533-0.228 0-0.398 0-0.626 0h0.057c-25.998-0.057-49.948-8.818-69.12-23.495l0.284 0.171zM418.702 383.431l-46.649 35.84-84.764-65.422-25.031 4.551c-3.243 0.398-6.997 0.626-10.809 0.626s-7.566-0.228-11.264-0.626l0.455 0.057c-0.228 0-0.512 0-0.796 0-25.543 0-49.095-8.761-67.698-23.495l0.228 0.171c-23.381-17.92-39.481-44.316-43.748-74.468l-0.057-0.626c-0.626-4.437-0.967-9.557-0.967-14.791 0-62.862 50.916-113.778 113.778-113.778 0.341 0 0.683 0 1.024 0h-0.057c25.998 0.057 49.948 8.818 69.12 23.495l-0.284-0.171c27.477 20.992 44.999 53.76 44.999 90.681 0 13.995-2.56 27.42-7.168 39.822l0.284-0.796-12.516 38.116 31.858 24.462zM368.64 565.475l-31.858 24.462 12.516 35.84c3.527 10.468 5.575 22.585 5.575 35.1 0 36.523-17.237 69.063-43.975 89.884l-0.228 0.171c-18.944 14.564-43.008 23.381-69.063 23.381-36.636 0-69.177-17.294-89.998-44.146l-0.171-0.284c-14.336-18.83-22.926-42.667-22.926-68.494 0-35.669 16.384-67.47 42.041-88.348l0.228-0.171c18.375-14.564 41.87-23.324 67.47-23.324 0.284 0 0.569 0 0.853 0h-0.057c3.243-0.398 6.997-0.626 10.809-0.626s7.566 0.228 11.264 0.626l-0.455-0.057 25.031 4.551 19.911-15.36 441.458-341.333c18.887-14.507 42.837-23.268 68.836-23.324v0c0.171 0 0.341 0 0.569 0 15.588 0 30.436 3.129 43.975 8.818l-0.74-0.284z" />
<glyph unicode="&#xe91a;" glyph-name="digg" d="M341.333 625.778h56.889v-341.333h-56.889v341.333zM227.556 625.778h-170.667v-341.333h227.556v455.111h-56.889zM227.556 341.333h-113.778v227.556h113.778zM341.333 739.555h56.889v-56.889h-56.889v56.889zM455.111 284.444h170.667v-56.889h-170.667v-56.889h227.556v455.111h-227.556zM512 568.889h113.778v-227.556h-113.778zM739.556 625.778v-341.333h170.667v-56.889h-170.667v-56.889h227.556v455.111zM796.444 341.333v227.556h113.778v-227.556z" />
<glyph unicode="&#xe91b;" glyph-name="document" d="M628.622 910.222h-514.844v-910.222h796.444v625.778zM625.778 832.284l204.231-206.507h-204.231zM853.333 56.889h-682.667v796.444h398.222v-284.444h284.444z" />
<glyph unicode="&#xe91c;" glyph-name="download" d="M455.111 853.333h56.889v-389.12l193.991 194.56 40.391-40.391-262.827-262.827-262.827 262.827 39.822 40.391 194.56-194.56v389.12zM853.333 284.444v-170.667h-739.556v170.667h-56.889v-227.556h853.333v227.556h-56.889z" />
<glyph unicode="&#xe91d;" glyph-name="edit" d="M923.876 719.644l-147.342 147.342c-15.474 15.303-36.807 24.747-60.302 24.747s-44.828-9.444-60.302-24.747v0l-459.662-460.231c-27.648-29.753-49.095-65.707-62.009-105.529l-0.569-1.991-56.889-203.093c-1.82-5.632-2.844-12.117-2.844-18.83 0-16.725 6.485-31.915 17.124-43.236l-0.057 0.057c10.24-9.842 24.121-15.929 39.481-15.929 0.512 0 1.024 0 1.536 0h-0.057c7.566 0.171 14.791 1.195 21.675 3.015l-0.626-0.171 203.093 56.889c41.87 13.369 77.824 34.816 107.691 62.748l-0.171-0.171 460.231 459.662c14.962 15.417 24.178 36.523 24.178 59.733s-9.216 44.316-24.178 59.733v0zM341.333 131.413l-95.004-25.6-83.627 83.627 25.6 95.004c5.689 17.408 12.857 32.427 21.561 46.421l-0.512-0.91 177.493-177.493c-13.084-8.192-28.103-15.36-44.032-20.594l-1.479-0.455zM883.484 639.431l-451.698-451.698-187.164 187.164 451.698 451.698c5.063 5.177 12.117 8.42 19.911 8.533v0c8.021 0 15.246-3.3 20.48-8.533l146.773-146.773c5.177-5.177 8.42-12.288 8.42-20.196s-3.243-15.019-8.42-20.196v0z" />
<glyph unicode="&#xe91e;" glyph-name="email" d="M512 910.222l-455.111-256v-597.333h910.222v597.333zM861.867 647.964l-349.867-185.458-349.867 185.458 349.867 196.836zM910.222 113.778h-796.444v495.502l398.222-211.058 398.222 211.058z" />
<glyph unicode="&#xe91f;" glyph-name="email-send" d="M19.911 484.693l264.533-132.551v-335.644l201.387 201.387 299.804-240.64 192.284 954.027zM150.756 484.693l645.689 298.667-486.969-380.018zM341.333 356.124l440.32 344.747-319.716-426.667-120.604-120.036zM748.658 79.644l-227.556 181.476 359.538 478.436z" />
<glyph unicode="&#xe920;" glyph-name="end" d="M284.444 651.947l341.333-196.836-341.333-196.836v393.671zM227.556 750.933v-591.644l512 295.822-512 295.822zM796.444 739.555h-56.889v-568.889h56.889z" />
<glyph unicode="&#xe921;" glyph-name="error" d="M725.333 824.889l213.902-369.778-213.902-369.778h-426.667l-213.902 369.778 213.902 369.778h426.667zM758.329 881.778h-492.658l-246.329-426.667 246.329-426.667h492.658l246.329 426.667-246.329 426.667zM568.889 284.444c0 31.403-25.486 56.889-56.889 56.889v0 0c-31.403 0-56.889-25.486-56.889-56.889v0 0c0-31.403 25.486-56.889 56.889-56.889v0 0c31.403 0 56.889 25.486 56.889 56.889v0zM568.889 682.667h-113.778v-284.444h113.778z" />
<glyph unicode="&#xe922;" glyph-name="exchange" d="M512 853.333c-144.441-0.341-270.791-77.483-340.309-192.796l-1.024-1.764v194.56h-56.889v-284.444h284.444v56.889h-180.907c60.302 101.888 169.643 169.074 294.684 169.074 187.961 0 340.423-151.95 341.333-339.684v-0.057h56.889c0 219.932-178.29 398.222-398.222 398.222v0zM512 56.889c144.441 0.341 270.791 77.483 340.309 192.796l1.024 1.764v-194.56h56.889v284.444h-284.444v-56.889h180.907c-60.302-101.888-169.643-169.074-294.684-169.074-187.961 0-340.423 151.95-341.333 339.684v0.057h-56.889c0-219.932 178.29-398.222 398.222-398.222v0z" />
<glyph unicode="&#xe923;" glyph-name="expand" d="M211.058 113.778h244.053v-56.889h-341.333v341.333h56.889v-244.053l254.293 254.293 40.391-39.822zM558.649 541.582l40.391-39.822 254.293 254.293v-244.053h56.889v341.333h-341.333v-56.889h244.053z" />
<glyph unicode="&#xe924;" glyph-name="external" d="M625.778 407.893v-237.227h-398.222v398.222h237.227l56.889 56.889h-351.004v-512h512v351.004l-56.889-56.889zM474.453 457.955l40.391-40.391 338.489 338.489v-193.991h56.889v291.271h-291.271v-56.889h193.991l-338.489-338.489z" />
<glyph unicode="&#xe925;" glyph-name="facebook" d="M910.222 967.111h-796.444c-62.862 0-113.778-50.916-113.778-113.778v0-796.444c0-62.862 50.916-113.778 113.778-113.778v0h796.444c62.862 0 113.778 50.916 113.778 113.778v0 796.444c0 62.862-50.916 113.778-113.778 113.778v0zM398.222 0v398.222h-84.196v84.196h84.196v108.089c-0.341 4.096-0.569 8.875-0.569 13.71 0 40.903 14.393 78.393 38.343 107.804l-0.228-0.284c28.729 24.804 66.389 39.936 107.577 39.936 5.177 0 10.297-0.228 15.36-0.683l-0.626 0.057h133.689v-95.004h-105.244c-2.901 0.512-6.201 0.796-9.614 0.796-19.627 0-36.921-9.956-47.161-25.088l-0.114-0.228c-7.396-13.881-11.776-30.436-11.776-47.957 0-3.129 0.114-6.258 0.398-9.33l-0.057 0.398v-92.16h166.116l-11.947-84.196h-151.324v-398.222zM967.111 56.889c0-31.403-25.486-56.889-56.889-56.889v0h-332.231v341.333h141.653l35.84 197.973h-177.493v36.978c-0.341 3.3-0.512 7.168-0.512 11.093s0.171 7.794 0.512 11.605l-0.057-0.512h170.667v209.351h-190.578c-5.348 0.455-11.548 0.74-17.863 0.74-57.23 0-109.34-21.902-148.423-57.742l0.171 0.171c-31.915-38.855-51.257-89.088-51.257-143.872 0-5.86 0.228-11.605 0.626-17.351l-0.057 0.74v-51.2h-84.196v-197.973h84.196v-341.333h-227.556c-31.403 0-56.889 25.486-56.889 56.889v0 796.444c0 31.403 25.486 56.889 56.889 56.889v0h796.444c31.403 0 56.889-25.486 56.889-56.889v0z" />
<glyph unicode="&#xe926;" glyph-name="facetag" d="M853.333 910.222v-56.889h56.889v-56.889h56.889v113.778zM0 910.222v-113.778h56.889v56.889h56.889v56.889zM682.667 853.333h113.778v56.889h-113.778zM512 853.333h113.778v56.889h-113.778zM341.333 853.333h113.778v56.889h-113.778zM170.667 853.333h113.778v56.889h-113.778zM170.667 284.444h113.778v56.889h-113.778zM682.667 284.444h113.778v56.889h-113.778zM0 625.778h56.889v113.778h-56.889zM910.222 625.778h56.889v113.778h-56.889zM0 455.111h56.889v113.778h-56.889zM910.222 455.111h56.889v113.778h-56.889zM56.889 341.333v56.889h-56.889v-113.778h113.778v56.889zM910.222 398.222v-56.889h-56.889v-56.889h113.778v113.778zM768.569 192.853c-21.049 8.533-42.098 14.791-56.889 19.911-48.754 13.141-85.561 52.793-94.322 102.172l-0.114 0.796c17.124 23.78 32.028 50.972 43.463 79.929l0.91 2.56c35.612 16.441 60.985 49.721 65.934 89.316l0.057 0.569c1.195 6.144 1.877 13.198 1.877 20.423 0 31.346-12.686 59.676-33.166 80.27v0c3.413 126.862-42.667 207.644-212.764 207.644s-216.178-80.782-212.764-209.92c-20.48-20.594-33.166-48.924-33.166-80.27 0-7.225 0.683-14.279 1.934-21.106l-0.114 0.683c5.803-39.253 30.948-71.566 65.308-87.324l0.683-0.284c12.686-30.606 27.762-57.060 45.682-81.237l-0.74 1.024c-8.021-51.086-45.113-91.819-93.525-105.017l-0.91-0.228c-15.36-5.12-36.409-11.378-56.889-19.911-33.223-10.126-56.946-40.448-56.946-76.345 0-0.967 0-1.934 0.057-2.901v0.114-56.889c88.292-36.693 190.919-58.027 298.496-58.027 15.076 0 30.037 0.398 44.942 1.252l-2.048-0.114c12.8-0.74 27.762-1.138 42.837-1.138 107.577 0 210.148 21.333 303.787 59.961l-5.291-1.934v56.889c0.057 0.853 0.057 1.877 0.057 2.901 0 35.669-23.438 65.877-55.808 76.004l-0.569 0.171zM341.333 458.524v0c-0.91-0.057-1.991-0.114-3.015-0.114-20.935 0-38.172 15.929-40.22 36.352v0.171c-0.626 2.674-0.967 5.746-0.967 8.932 0 19.228 13.426 35.328 31.46 39.424l0.284 0.057v43.804c-1.081 6.997-1.707 15.019-1.707 23.211 0 35.556 11.492 68.38 31.004 95.004l-0.341-0.455c29.298 22.3 66.389 35.726 106.61 35.726 6.713 0 13.369-0.398 19.911-1.081l-0.796 0.057c5.86 0.683 12.572 1.081 19.456 1.081 40.562 0 77.995-13.653 107.861-36.636l-0.398 0.284c19.172-26.169 30.72-59.051 30.72-94.549 0-8.192-0.626-16.213-1.764-24.064l0.114 0.91v-43.804c18.261-4.096 31.687-20.196 31.687-39.424 0-3.186-0.341-6.258-1.024-9.159l0.057 0.284c-0.512-21.902-18.375-39.424-40.391-39.424-1.422 0-2.788 0.057-4.153 0.228h0.171l-15.929-44.942c-34.702-74.524-92.16-125.724-126.293-125.724s-91.591 51.2-124.587 129.138zM766.293 95.004c-74.695-24.633-160.597-38.855-249.856-38.855-12.174 0-24.235 0.284-36.295 0.796l1.707-0.057c-10.297-0.455-22.414-0.74-34.588-0.74-89.259 0-175.218 14.222-255.716 40.505l5.803-1.65v18.773c0 11.378 0 18.204 21.049 26.169 10.183 4.437 22.983 9.102 36.181 13.028l2.503 0.626 15.36 5.12c55.922 15.474 100.238 55.467 121.287 107.463l0.455 1.195c23.324-22.642 54.386-37.376 88.86-39.822h0.455c34.93 2.446 65.991 17.18 89.372 39.879l-0.057-0.057c21.163-52.793 64.796-92.729 118.727-108.316l1.308-0.341 15.36-5.12c15.701-4.551 28.501-9.216 41.017-14.507l-2.332 0.853c19.911-7.964 21.049-14.791 21.049-26.169z" />
<glyph unicode="&#xe927;" glyph-name="filter" d="M944.924 625.778c15.246 14.393 25.088 34.418 26.169 56.718v0.171c0 94.436-204.231 170.667-455.111 170.667s-455.111-76.231-455.111-170.667c0.796-22.414 10.468-42.496 25.543-56.832l0.057-0.057 316.302-341.333v-227.556c0-31.289 50.631-56.889 113.778-56.889s113.778 25.6 113.778 56.889v227.556l315.733 341.333zM515.982 796.444c258.276 0 398.222-80.782 398.222-113.778s-139.947-113.778-398.222-113.778-398.222 80.782-398.222 113.778 139.378 113.778 398.222 113.778zM587.662 323.129l-14.791-16.498v-238.364c-15.815-7.225-34.304-11.435-53.817-11.435-1.081 0-2.162 0-3.243 0.057h0.171c-1.195-0.057-2.617-0.057-3.982-0.057-19.172 0-37.376 4.21-53.703 11.776l0.796-0.341v238.364l-15.36 16.498-208.213 227.556c83.228-24.576 178.916-38.684 277.845-38.684 0.91 0 1.82 0 2.731 0h-0.114c3.3-0.057 7.225-0.057 11.15-0.057 95.858 0 188.587 13.312 276.423 38.172l-7.111-1.707zM146.204 583.111v0z" />
<glyph unicode="&#xe928;" glyph-name="flickr" d="M711.111 568.889c78.564 0 142.222-63.659 142.222-142.222s-63.659-142.222-142.222-142.222c-78.564 0-142.222 63.659-142.222 142.222v0c0 78.564 63.659 142.222 142.222 142.222v0zM711.111 625.778c-109.966 0-199.111-89.145-199.111-199.111s89.145-199.111 199.111-199.111c109.966 0 199.111 89.145 199.111 199.111v0c0 109.966-89.145 199.111-199.111 199.111v0zM256 625.778c-109.966 0-199.111-89.145-199.111-199.111s89.145-199.111 199.111-199.111c109.966 0 199.111 89.145 199.111 199.111v0c0 109.966-89.145 199.111-199.111 199.111v0zM284.444 287.858c-8.533-2.105-18.318-3.356-28.388-3.413h-0.057c-16.612 0.341-32.37 3.243-47.161 8.306l1.081-0.341 180.338 180.338c4.722-13.71 7.623-29.468 7.964-45.909v-0.171c0-0.057 0-0.171 0-0.284 0-10.411-1.252-20.48-3.584-30.151l0.171 0.853zM360.107 522.809l-200.249-200.249c-14.108 12.914-25.6 28.388-33.735 45.739l-0.398 0.91 187.733 187.733c18.261-8.533 33.735-20.025 46.535-34.020l0.114-0.114zM113.778 438.613c5.803 69.518 60.757 124.473 129.764 130.219l0.512 0.057z" />
<glyph unicode="&#xe929;" glyph-name="folder" d="M446.009 682.667l-68.267 170.667h-320.853v-796.444h910.222v625.778zM113.778 796.444h227.556l45.511-113.778h-273.067zM910.222 113.778h-796.444v512h796.444z" />
<glyph unicode="&#xe92a;" glyph-name="folders" d="M739.556 796.444v-56.889h-682.667v56.889zM170.667 455.111h682.667v56.889h-682.667zM284.444 170.667h682.667v56.889h-682.667z" />
<glyph unicode="&#xe92b;" glyph-name="fotomoto" d="M341.333 398.222v-170.667c0-31.403-25.486-56.889-56.889-56.889s-56.889 25.486-56.889 56.889v0 455.111c-0.171 1.593-0.284 3.527-0.284 5.404 0 28.615 23.154 51.769 51.769 51.769 1.877 0 3.755-0.114 5.632-0.284h454.884c31.403 0 56.889-25.486 56.889-56.889s-25.486-56.889-56.889-56.889v0h-398.222v-113.778h337.92c31.403 0 56.889-25.486 56.889-56.889s-25.486-56.889-56.889-56.889v0zM739.556 170.667c-31.403 0-56.889 25.486-56.889 56.889s25.486 56.889 56.889 56.889c31.403 0 56.889-25.486 56.889-56.889v0c0-31.403-25.486-56.889-56.889-56.889v0zM910.222 910.222c31.403 0 56.889-25.486 56.889-56.889v0-796.444c0-31.403-25.486-56.889-56.889-56.889v0h-796.444c-31.403 0-56.889 25.486-56.889 56.889v0 796.444c0 31.403 25.486 56.889 56.889 56.889v0h796.444zM910.222 967.111h-796.444c-62.862 0-113.778-50.916-113.778-113.778v0-796.444c0-62.862 50.916-113.778 113.778-113.778v0h796.444c62.862 0 113.778 50.916 113.778 113.778v0 796.444c0 62.862-50.916 113.778-113.778 113.778v0z" />
<glyph unicode="&#xe92c;" glyph-name="foursquare" d="M910.222 910.222c31.403 0 56.889-25.486 56.889-56.889v0-796.444c0-31.403-25.486-56.889-56.889-56.889v0h-796.444c-31.403 0-56.889 25.486-56.889 56.889v0 796.444c0 31.403 25.486 56.889 56.889 56.889v0h796.444zM910.222 967.111h-796.444c-62.862 0-113.778-50.916-113.778-113.778v0-796.444c0-62.862 50.916-113.778 113.778-113.778v0h796.444c62.862 0 113.778 50.916 113.778 113.778v0 796.444c0 62.862-50.916 113.778-113.778 113.778v0zM682.667 657.067l-14.791-65.422c-1.991-7.566-8.533-13.141-16.441-13.653h-118.386c-0.171 0-0.341 0-0.569 0-13.198 0-23.893-10.695-23.893-23.893 0 0 0 0 0 0v0-14.222c0-13.483 10.98-24.462 24.462-24.462v0h100.124c8.647-0.171 15.644-7.225 15.644-15.929 0-1.024-0.114-1.991-0.284-2.958v0.114c0-10.24-12.516-61.44-13.653-67.129-2.048-7.396-8.59-12.857-16.498-13.084v0h-81.92c-17.067 0-20.48 0-30.72-13.084s-100.124-124.587-100.124-124.587 0 0 0 0v382.293c0.626 8.761 7.68 15.644 16.498 15.929v0h245.76c8.761-0.057 15.872-7.168 15.872-15.929 0-1.422-0.171-2.788-0.512-4.096v0.114zM699.164 739.555h-300.942c-2.048 0.284-4.437 0.455-6.827 0.455-27.648 0-50.062-22.414-50.062-50.062 0-0.341 0-0.74 0-1.081v0.057-482.987c-0.171-1.308-0.284-2.844-0.284-4.38 0-12.971 7.737-24.121 18.887-29.127l0.228-0.057c3.527-1.195 7.623-1.934 11.89-1.934 10.183 0 19.399 3.982 26.226 10.468v0s143.36 170.667 146.204 170.667c1.024 1.707 2.844 2.844 4.949 2.844 0.057 0 0.114 0 0.228 0h91.022c1.195-0.114 2.617-0.171 4.039-0.171 24.519 0 44.544 19.115 46.023 43.292v0.114c3.982 13.653 43.804 208.213 56.889 270.222 8.533 46.649-3.413 71.68-48.356 71.68z" />
<glyph unicode="&#xe92d;" glyph-name="fullscreen" d="M341.333 910.222h-284.444v-284.444h56.889v227.556h227.556zM682.667 853.333h227.556v-227.556h56.889v284.444h-284.444zM341.333 56.889h-227.556v227.556h-56.889v-284.444h284.444zM682.667 0h284.444v284.444h-56.889v-227.556h-227.556z" />
<glyph unicode="&#xe92e;" glyph-name="fullscreen-off" d="M113.778 568.889h284.444v284.444h-56.889v-227.556h-227.556zM910.222 625.778h-227.556v227.556h-56.889v-284.444h284.444zM113.778 284.444h227.556v-227.556h56.889v284.444h-284.444zM910.222 341.333h-284.444v-284.444h56.889v227.556h227.556z" />
<glyph unicode="&#xe92f;" glyph-name="google" d="M512-28.445c-0.341 0-0.74 0-1.195 0-267.036 0-483.556 216.519-483.556 483.556s216.519 483.556 483.556 483.556c133.803 0 254.976-54.386 342.528-142.222v0l20.48-19.911-160.427-160.427-20.48 19.911c-46.308 46.364-110.364 75.036-181.077 75.036-141.369 0-256-114.631-256-256s114.631-256 256-256c88.405 0 166.343 44.828 212.309 112.924l0.569 0.91h-241.209v227.556h512v-85.333c-0.341-266.923-216.633-483.214-483.499-483.556h-0.057zM512 881.778c-235.634 0-426.667-191.033-426.667-426.667s191.033-426.667 426.667-426.667c235.634 0 426.667 191.033 426.667 426.667v0 28.444h-398.222v-113.778h275.342l-17.067-39.822c-49.55-111.332-159.232-187.563-286.663-187.563-172.828 0-312.889 140.060-312.889 312.889s140.060 312.889 312.889 312.889c76.402 0 146.375-27.364 200.704-72.818l-0.512 0.398 80.213 80.213c-74.24 65.707-172.43 105.813-279.95 105.813-0.171 0-0.341 0-0.512 0v0z" />
<glyph unicode="&#xe930;" glyph-name="heart" d="M512 17.067l-23.324 33.564c-46.535 62.464-103.196 114.404-168.050 154.396l-2.617 1.479c-118.898 77.938-261.12 208.213-261.12 378.311 0 236.658 133.12 284.444 242.916 284.444 90.169-1.593 168.562-50.46 211.57-122.88l0.626-1.138c44.658 74.468 124.132 124.075 215.268 126.293h0.341c150.756 0 238.364-104.676 239.502-284.444 0-170.667-139.378-289.564-261.689-376.036-66.56-43.463-123.051-95.972-169.472-156.558l-1.195-1.593zM299.236 813.511c-78.507 0.569-185.458-22.756-185.458-229.262 0-143.929 128.569-259.413 237.227-330.524 61.781-39.595 114.802-85.959 160.199-138.98l0.796-0.967c47.104 52.907 99.499 99.385 156.956 139.207l2.901 1.877c113.778 79.076 238.933 187.733 237.796 329.387 0 105.244-32.996 230.4-182.613 230.4-87.609-4.21-160.825-61.44-188.416-140.174l-0.455-1.479-26.169-61.44-26.169 61.44c-27.477 79.417-99.556 136.306-185.515 141.084h-0.512z" />
<glyph unicode="&#xe931;" glyph-name="help" d="M621.796 653.084c-11.719 9.5-25.6 16.896-40.676 21.39l-0.853 0.228c-15.815 4.722-34.020 7.452-52.907 7.452-1.422 0-2.788 0-4.21-0.057h0.228c-4.949 0.398-10.695 0.626-16.498 0.626s-11.548-0.228-17.237-0.683l0.74 0.057c-13.54-2.674-24.804-5.632-35.84-9.159l2.276 0.626c-12.459-3.868-22.869-7.908-32.825-12.629l1.536 0.683c-11.378-4.892-20.708-9.614-29.696-14.905l1.252 0.683 30.72-66.56c13.255 6.827 29.582 13.938 46.421 20.082l3.072 0.967c13.255 5.575 28.672 8.875 44.828 9.102h0.114c1.195 0.114 2.56 0.171 3.925 0.171 12.004 0 22.983-4.38 31.403-11.605l-0.057 0.057c7.111-6.827 11.548-16.441 11.548-27.079 0-1.252-0.057-2.56-0.171-3.755v0.171c0.455-2.901 0.74-6.258 0.74-9.671s-0.284-6.77-0.74-10.012l0.057 0.341c-1.707-6.087-4.437-11.435-8.021-16.043l0.057 0.114c-4.21-5.916-8.704-11.15-13.596-15.872l-0.057-0.057-21.618-17.636c-9.045-6.884-17.010-14.165-24.348-22.073l-0.114-0.114c-6.713-6.315-12.345-13.653-16.839-21.732l-0.228-0.455c-10.752-14.222-17.92-31.744-19.854-50.745l-0.057-0.455v-38.116h88.178v31.858c-0.114 2.56-0.228 5.518-0.228 8.533s0.057 5.973 0.228 8.932v-0.398c1.252 5.177 3.243 9.728 5.803 13.824l-0.114-0.171c3.072 5.632 6.656 10.524 10.809 14.791v0c6.258 6.030 12.971 11.776 19.911 17.18l0.569 0.455c10.809 8.533 20.48 17.067 29.013 25.031 8.192 7.623 15.474 16.043 21.845 25.088l0.341 0.512c5.234 8.021 9.5 17.294 12.345 27.136l0.171 0.74c2.901 10.069 4.551 21.675 4.551 33.678 0 0.171 0 0.341 0 0.455v0c0 0.341 0 0.74 0 1.138 0 16.27-3.584 31.744-9.956 45.625l0.284-0.683c-6.087 13.312-14.962 24.348-25.941 32.825l-0.228 0.171zM550.684 318.009c-4.892 3.755-10.524 6.827-16.612 8.988l-0.455 0.114c-3.015 0.398-6.428 0.626-9.956 0.626s-6.94-0.228-10.354-0.683l0.398 0.057c-3.186 0.398-6.827 0.626-10.524 0.626s-7.339-0.228-10.923-0.683l0.398 0.057c-6.542-2.276-12.174-5.348-17.237-9.216l0.171 0.114c-4.892-4.267-8.761-9.614-11.264-15.644l-0.114-0.284c-2.503-6.884-3.982-14.848-3.982-23.154 0-0.228 0-0.512 0-0.74v0.057c0-8.363 1.479-16.384 4.153-23.836l-0.171 0.512c3.015-6.144 6.827-11.435 11.378-15.929v0c4.892-3.755 10.524-6.827 16.612-8.988l0.455-0.114c5.803-1.422 12.459-2.276 19.342-2.276v0c3.015-0.398 6.428-0.626 9.956-0.626s6.94 0.228 10.354 0.683l-0.398-0.057c6.542 2.276 12.174 5.348 17.237 9.216l-0.171-0.114c4.551 4.494 8.363 9.785 11.207 15.588l0.171 0.341c2.56 6.201 4.039 13.426 4.039 21.049 0 0.796 0 1.593-0.057 2.389v-0.114c0.057 0.853 0.057 1.82 0.057 2.788 0 7.566-1.479 14.848-4.21 21.447l0.114-0.398c-1.82 7.054-5.177 13.198-9.728 18.261l0.057-0.057zM512 910.222c-251.335 0-455.111-203.776-455.111-455.111s203.776-455.111 455.111-455.111c251.335 0 455.111 203.776 455.111 455.111v0c0 251.335-203.776 455.111-455.111 455.111v0zM512 56.889c-219.932 0-398.222 178.29-398.222 398.222s178.29 398.222 398.222 398.222c219.932 0 398.222-178.29 398.222-398.222v0c0-219.932-178.29-398.222-398.222-398.222v0z" />
<glyph unicode="&#xe932;" glyph-name="hide-bottom-panel" d="M967.111 0v56.889h-56.889v284.444h-853.333v-284.444h-56.889v-56.889zM853.333 56.889h-739.556v227.556h739.556zM455.111 910.222h56.889v-389.12l137.102 137.671 40.391-40.391-205.938-205.938-205.938 205.938 40.391 40.391 137.102-137.671z" />
<glyph unicode="&#xe933;" glyph-name="hide-top-panel" d="M0 910.222v-56.889h56.889v-284.444h853.333v284.444h56.889v56.889zM853.333 625.778h-739.556v227.556h739.556zM455.111 389.12l-137.102-137.671-40.391 40.391 205.938 205.938 205.938-205.938-40.391-40.391-137.102 137.671v-389.12h-56.889z" />
<glyph unicode="&#xe934;" glyph-name="home" d="M796.444 56.889h-568.889v341.333h-113.778l398.222 398.222 398.222-398.222h-113.778zM739.556 113.778v341.333h33.564l-261.12 261.12-261.12-261.12h33.564v-341.333z" />
<glyph unicode="&#xe935;" glyph-name="image" d="M56.889 910.222v-910.222h910.222v910.222zM910.222 853.333v-259.982l-144.498 96.711-512-455.111-139.947 93.298v525.084zM113.778 56.889v203.093l144.498-96.711 512 455.111 139.947-93.298v-468.196zM341.333 512c-62.862 0-113.778 50.916-113.778 113.778s50.916 113.778 113.778 113.778c62.862 0 113.778-50.916 113.778-113.778v0c0-62.862-50.916-113.778-113.778-113.778v0zM341.333 682.667c-31.403 0-56.889-25.486-56.889-56.889s25.486-56.889 56.889-56.889c31.403 0 56.889 25.486 56.889 56.889v0c0 31.403-25.486 56.889-56.889 56.889v0z" />
<glyph unicode="&#xe936;" glyph-name="info" d="M512 853.333c-219.932 0-398.222-178.29-398.222-398.222s178.29-398.222 398.222-398.222c219.932 0 398.222 178.29 398.222 398.222v0c0 219.932-178.29 398.222-398.222 398.222v0zM568.889 625.778c0-31.403-25.486-56.889-56.889-56.889v0 0c-31.403 0-56.889 25.486-56.889 56.889v0 0c0 31.403 25.486 56.889 56.889 56.889v0 0c31.403 0 56.889-25.486 56.889-56.889v0zM967.111 455.111c0-251.335-203.776-455.111-455.111-455.111s-455.111 203.776-455.111 455.111c0 251.335 203.776 455.111 455.111 455.111v0c251.335 0 455.111-203.776 455.111-455.111v0zM568.889 227.555h-113.778v284.444h113.778z" />
<glyph unicode="&#xe937;" glyph-name="instagram" d="M910.222 967.111h-796.444c-62.862 0-113.778-50.916-113.778-113.778v0-796.444c0-62.862 50.916-113.778 113.778-113.778v0h796.444c62.862 0 113.778 50.916 113.778 113.778v0 796.444c0 62.862-50.916 113.778-113.778 113.778v0zM853.333 853.333c31.403 0 56.889-25.486 56.889-56.889s-25.486-56.889-56.889-56.889c-31.403 0-56.889 25.486-56.889 56.889v0c0 31.403 25.486 56.889 56.889 56.889v0zM292.409 512h439.182c4.779-16.953 7.623-36.523 7.964-56.718v-0.171c0-125.668-101.888-227.556-227.556-227.556s-227.556 101.888-227.556 227.556v0c0.341 20.366 3.186 39.936 8.363 58.539l-0.398-1.65zM967.111 56.889c0-31.403-25.486-56.889-56.889-56.889v0h-796.444c-31.403 0-56.889 25.486-56.889 56.889v0 455.111h176.356c-3.47-17.010-5.518-36.693-5.689-56.775v-0.114c0-157.070 127.374-284.444 284.444-284.444s284.444 127.374 284.444 284.444v0c-0.171 20.196-2.219 39.879-6.030 58.88l0.341-1.991h176.356zM967.111 568.889h-910.222v284.444c0 31.403 25.486 56.889 56.889 56.889v0h796.444c31.403 0 56.889-25.486 56.889-56.889v0z" />
<glyph unicode="&#xe938;" glyph-name="jalbum" d="M1008.64 614.969c-13.881 31.972-40.107 56.32-72.533 67.47l-0.853 0.228c-25.6 12.516-38.116 19.342-42.098 38.116l-5.12 27.307c-4.267 63.943-32.199 120.661-75.036 162.076l-0.057 0.057c-34.076 29.468-78.791 47.445-127.772 47.445-45.796 0-87.893-15.758-121.23-42.098l0.398 0.341c-40.164-33.223-70.030-77.596-84.878-128.455l-0.455-1.82-85.333-33.564c-34.645-13.198-64.057-27.534-91.989-44.146l2.674 1.479c-46.080 13.653-199.111 46.080-274.773-76.231-18.432-28.16-29.412-62.692-29.412-99.783 0-15.076 1.82-29.696 5.234-43.748l-0.284 1.252c16.668-61.554 55.694-112.071 107.577-143.303l1.081-0.626c29.013-17.636 27.876-31.858 25.031-56.889-0.796-5.461-1.308-11.776-1.308-18.204s0.455-12.743 1.365-18.887l-0.057 0.683c6.827-35.271 29.013-92.16 138.809-178.062 87.78-71.452 199.851-116.11 322.276-120.036h0.853c5.86-0.398 12.743-0.626 19.627-0.626s13.767 0.228 20.537 0.683l-0.91-0.057c0.341 0 0.74 0 1.195 0 75.605 0 143.189 34.361 187.961 88.348l0.341 0.398c53.362 56.149 99.214 120.149 135.509 189.952l2.162 4.608c56.889 134.827 72.818 285.582 41.529 376.036zM145.067 395.378c-40.732 24.007-71.054 62.066-84.423 107.349l-0.341 1.308c-2.162 8.818-3.413 18.887-3.413 29.241 0 26.169 7.851 50.517 21.333 70.77l-0.284-0.455c26.283 38.229 69.746 63.033 119.012 63.033 3.982 0 7.851-0.171 11.776-0.455l-0.512 0.057c32.427-0.455 63.488-5.632 92.729-14.848l-2.276 0.626 13.653-4.551 11.378 7.396c25.6 15.701 55.353 30.606 86.414 42.951l4.039 1.422c57.458 22.187 97.849 40.391 97.849 40.391l14.222 5.12 2.844 14.791c11.15 45.568 35.214 84.366 68.039 113.607l0.228 0.171c23.893 19.058 54.556 30.549 87.893 30.549s64-11.492 88.178-30.777l-0.284 0.228c33.052-33.223 54.272-78.165 56.889-128.114v-0.455l5.12-28.444c9.216-39.026 37.547-69.746 74.297-82.261l0.796-0.228c16.441-5.746 30.151-15.815 40.22-28.843l0.171-0.171-32.996-23.324c-102.741-80.782-223.801-143.644-355.556-181.362l-7.396-1.82c-59.506-17.067-111.445-39.936-159.403-68.779l2.958 1.65c-48.868-31.289-106.325-53.988-167.936-64.455l-2.731-0.398-31.289-3.413c-0.398 2.901-0.626 6.258-0.626 9.671s0.228 6.77 0.626 10.069l-0.057-0.398c1.934 7.396 3.072 15.815 3.072 24.519 0 38.457-21.788 71.794-53.703 88.405l-0.569 0.284zM889.173 493.227c-31.63-135.68-112.469-248.604-222.208-321.365l-1.934-1.195c-45.454-26.396-99.954-41.927-158.151-41.927-86.528 0-165.035 34.418-222.492 90.34l0.057-0.057c54.329 16.498 101.433 37.376 145.351 63.147l-3.129-1.707c40.903 24.519 88.064 45.227 137.899 59.79l4.324 1.081c122.254 32.597 229.092 84.821 322.958 153.771l-2.674-1.877zM913.067 261.12c-34.475-68.949-75.605-128.284-123.961-180.907l0.512 0.569c-35.328-43.804-88.974-71.566-149.163-71.566-11.435 0-22.585 1.024-33.508 2.901l1.138-0.171c-112.071 3.186-214.13 43.406-295.026 108.828l0.91-0.74c-15.36 12.516-28.444 23.324-40.391 34.133 64.626-50.062 146.83-80.213 236.032-80.213 0.796 0 1.65 0 2.446 0h-0.114c0.74 0 1.65 0 2.56 0 67.584 0 130.788 19.058 184.377 52.11l-1.536-0.853c138.24 84.764 227.556 227.556 266.809 427.804v8.533c1.536-16.1 2.446-34.816 2.446-53.703 0-89.429-19.74-174.251-55.182-250.311l1.536 3.641zM184.889 604.16c-1.252 0.114-2.788 0.114-4.267 0.114-35.556 0-64.398-28.843-64.398-64.398 0-34.076 26.453-61.952 59.961-64.284h0.171c1.252-0.114 2.788-0.114 4.267-0.114 35.556 0 64.398 28.843 64.398 64.398 0 34.076-26.453 61.952-59.961 64.284h-0.171zM682.667 718.507c92.729 0 83.627 136.533 0 136.533-37.717 0-68.267-30.549-68.267-68.267s30.549-68.267 68.267-68.267v0zM316.871 435.2c6.258 26.738-45.511 23.324-43.804 0 3.413-43.236 36.978-26.169 43.804 0zM604.729 547.271c17.636 3.413 38.116 38.684 0 42.098s-27.876-47.218 0-42.098z" />
<glyph unicode="&#xe939;" glyph-name="library" d="M113.778 853.333h56.889v-796.444h-56.889v796.444zM284.444 853.333h56.889v-796.444h-56.889v796.444zM455.111 853.333h56.889v-796.444h-56.889v796.444zM608.825 832.455l54.955 14.734 206.108-769.308-54.955-14.734-206.108 769.308z" />
<glyph unicode="&#xe93a;" glyph-name="link" d="M517.689 581.973c78.165-27.876 133.12-101.262 133.12-187.449 0-55.012-22.414-104.846-58.539-140.8l-160.427-160.427c-36.011-36.011-85.788-58.311-140.8-58.311-109.966 0-199.111 89.145-199.111 199.111 0 55.012 22.3 104.789 58.311 140.8l160.427 160.427 8.533 6.827c-1.877-11.435-3.015-24.633-3.015-38.116s1.081-26.681 3.186-39.538l-0.171 1.422-129.138-131.413c-25.771-25.771-41.7-61.383-41.7-100.693 0-78.62 63.772-142.393 142.393-142.393 39.31 0 74.923 15.929 100.693 41.7l160.996 160.996c25.543 25.884 41.301 61.44 41.301 100.693s-15.758 74.809-41.358 100.693v0c-17.18 16.839-38.684 29.355-62.748 35.612l-0.967 0.228c3.186 17.522 11.492 32.711 23.324 44.373v0zM512 334.507c11.833 11.662 20.139 26.852 23.268 43.861l0.057 0.512c-25.031 6.485-46.535 19.001-63.716 35.84v0c-25.543 25.884-41.301 61.44-41.301 100.693s15.758 74.809 41.358 100.693l160.996 160.996c25.771 25.771 61.383 41.7 100.693 41.7 78.62 0 142.393-63.772 142.393-142.393 0-39.31-15.929-74.923-41.7-100.693l-131.413-131.413c1.877-11.435 3.015-24.633 3.015-38.116s-1.081-26.681-3.186-39.538l0.171 1.422c3.186 2.276 5.973 4.494 8.59 6.884l160.37 160.37c36.011 36.011 58.311 85.788 58.311 140.8 0 109.966-89.145 199.111-199.111 199.111-55.012 0-104.789-22.3-140.8-58.311v0l-158.151-160.427c-36.181-35.954-58.539-85.788-58.539-140.8 0-86.187 54.955-159.573 131.698-186.994l1.365-0.455z" />
<glyph unicode="&#xe93b;" glyph-name="linkedin" d="M398.222 682.667c0 31.403-25.486 56.889-56.889 56.889v0c-0.171 0-0.398 0-0.626 0-15.474 0-29.355-6.542-39.14-17.010l-0.057-0.057c-10.069-10.24-16.27-24.292-16.27-39.822s6.201-29.582 16.27-39.822v0c9.785-10.524 23.723-17.067 39.196-17.067 0.228 0 0.455 0 0.683 0h-0.057c31.403 0 56.889 25.486 56.889 56.889v0zM398.222 568.889h-113.778v-398.222h113.778zM796.444 426.667c0 0.91 0.057 1.991 0.057 3.072 0 37.604-14.279 71.908-37.717 97.735l0.114-0.114c-21.618 25.486-53.703 41.529-89.486 41.529-0.341 0-0.683 0-1.024 0h0.057c-31.858 0-65.422-23.893-99.556-71.111v71.111h-113.778v-398.222h113.778v227.556c0.228 15.588 6.713 29.696 17.067 39.822v0c9.785 10.524 23.723 17.067 39.196 17.067 0.228 0 0.455 0 0.683 0h-0.057c31.403 0 56.889-25.486 56.889-56.889v0-227.556h113.778zM910.222 910.222c31.403 0 56.889-25.486 56.889-56.889v0-796.444c0-31.403-25.486-56.889-56.889-56.889v0h-796.444c-31.403 0-56.889 25.486-56.889 56.889v0 796.444c0 31.403 25.486 56.889 56.889 56.889v0h796.444zM910.222 967.111h-796.444c-62.862 0-113.778-50.916-113.778-113.778v0-796.444c0-62.862 50.916-113.778 113.778-113.778v0h796.444c62.862 0 113.778 50.916 113.778 113.778v0 796.444c0 62.862-50.916 113.778-113.778 113.778v0z" />
<glyph unicode="&#xe93c;" glyph-name="location" d="M483.556 853.333c172.772-0.455 312.661-140.629 312.661-313.458 0-62.293-18.148-120.263-49.436-169.074l0.74 1.252c-46.649-72.818-190.578-250.311-263.964-341.333-73.387 89.316-217.316 266.809-263.964 341.333-30.549 47.559-48.697 105.529-48.697 167.822 0 172.828 139.89 313.003 312.604 313.458h0.057zM483.556 910.222c-0.398 0-0.853 0-1.308 0-204.231 0-369.778-165.547-369.778-369.778 0-73.899 21.675-142.791 59.051-200.59l-0.853 1.422c65.991-102.4 311.751-398.222 311.751-398.222s245.76 295.822 311.751 398.222c36.466 56.32 58.197 125.212 58.197 199.111 0 203.89-164.978 369.209-368.754 369.778h-0.057zM483.556 625.778c-47.104 0-85.333-38.229-85.333-85.333s38.229-85.333 85.333-85.333c47.104 0 85.333 38.229 85.333 85.333v0c0 47.104-38.229 85.333-85.333 85.333v0z" />
<glyph unicode="&#xe93d;" glyph-name="loop" d="M768 625.778h-162.133l92.16 92.16-40.391 40.391-160.996-160.996 160.996-160.996 40.391 40.391-92.16 92.16h162.133c78.564 0 142.222-63.659 142.222-142.222s-63.659-142.222-142.222-142.222v0h-512c-78.564 0-142.222 63.659-142.222 142.222s63.659 142.222 142.222 142.222v0h142.222v56.889h-142.222c-109.966 0-199.111-89.145-199.111-199.111s89.145-199.111 199.111-199.111v0h512c109.966 0 199.111 89.145 199.111 199.111s-89.145 199.111-199.111 199.111v0z" />
<glyph unicode="&#xe93e;" glyph-name="map" d="M654.222 806.115l-284.444 94.436-312.889-104.107v-796.444l312.889 104.107 284.444-94.436 312.889 104.107v796.444zM341.333 154.738l-227.556-75.662v676.409l227.556 75.662zM398.222 831.147l227.556-75.662v-676.409l-227.556 75.662zM910.222 154.738l-227.556-75.662v676.409l227.556 75.662z" />
<glyph unicode="&#xe93f;" glyph-name="menu" d="M967.111 796.444v-56.889h-910.222v56.889zM56.889 398.222h910.222v56.889h-910.222zM56.889 56.889h910.222v56.889h-910.222z" />
<glyph unicode="&#xe940;" glyph-name="minus" d="M113.778 455.111h739.556v-56.889h-739.556v56.889z" />
<glyph unicode="&#xe941;" glyph-name="more" d="M597.333 455.111c0-47.104-38.229-85.333-85.333-85.333s-85.333 38.229-85.333 85.333c0 47.104 38.229 85.333 85.333 85.333v0c47.104 0 85.333-38.229 85.333-85.333v0zM796.444 540.444c-47.104 0-85.333-38.229-85.333-85.333s38.229-85.333 85.333-85.333c47.104 0 85.333 38.229 85.333 85.333v0c0 47.104-38.229 85.333-85.333 85.333v0zM227.556 540.444c-47.104 0-85.333-38.229-85.333-85.333s38.229-85.333 85.333-85.333c47.104 0 85.333 38.229 85.333 85.333v0c0 47.104-38.229 85.333-85.333 85.333v0z" />
<glyph unicode="&#xe942;" glyph-name="more-menu" d="M512 540.444c47.104 0 85.333-38.229 85.333-85.333s-38.229-85.333-85.333-85.333c-47.104 0-85.333 38.229-85.333 85.333v0c0 47.104 38.229 85.333 85.333 85.333v0zM426.667 739.555c0-47.104 38.229-85.333 85.333-85.333s85.333 38.229 85.333 85.333c0 47.104-38.229 85.333-85.333 85.333v0c-47.104 0-85.333-38.229-85.333-85.333v0zM426.667 170.667c0-47.104 38.229-85.333 85.333-85.333s85.333 38.229 85.333 85.333c0 47.104-38.229 85.333-85.333 85.333v0c-47.104 0-85.333-38.229-85.333-85.333v0z" />
<glyph unicode="&#xe943;" glyph-name="mostphotos" d="M512 967.111c-282.795 0-512-229.205-512-512s229.205-512 512-512c282.795 0 512 229.205 512 512v0c0 282.795-229.205 512-512 512v0zM512 0c-251.335 0-455.111 203.776-455.111 455.111s203.776 455.111 455.111 455.111c251.335 0 455.111-203.776 455.111-455.111v0c0-251.335-203.776-455.111-455.111-455.111v0zM841.956 215.040c-6.258-6.827-27.876-32.427-34.133-38.116s-14.222 0-18.204 5.689l-149.049 347.022-64.284-148.48c-4.551-9.102-11.947-9.102-15.929 0-8.988 22.926-17.806 41.643-27.591 59.733l1.422-2.844c-2.162 4.949-3.413 10.695-3.413 16.782s1.252 11.833 3.527 17.067l-0.114-0.284c5.12 11.947 56.889 131.413 90.453 213.902 1.081 5.916 6.201 10.411 12.345 10.411 0.683 0 1.308-0.057 1.934-0.171h-0.057c6.030-0.284 11.15-3.868 13.596-8.988l0.057-0.114c5.12-9.102 147.911-341.333 190.009-438.044 2.446-4.722 3.868-10.297 3.868-16.27 0-6.372-1.65-12.345-4.551-17.522l0.114 0.171zM645.689 96.142c3.413-11.378 2.844-22.756-6.827-26.738s-37.547-10.809-40.391-11.947c-11.947 0-17.067 0-24.462 16.498s-190.578 455.111-190.578 455.111-140.516-330.524-146.773-344.178-14.222-15.36-21.618-9.102c-11.89 11.662-22.756 24.292-32.427 37.831l-0.569 0.853c-3.015 4.779-4.779 10.581-4.779 16.782s1.764 12.004 4.836 16.896l-0.057-0.114c19.911 46.080 150.756 341.333 187.733 435.769 0 7.396 5.689 10.809 13.653 11.378s11.947-7.396 14.791-14.222 243.484-572.871 247.467-584.818z" />
<glyph unicode="&#xe944;" glyph-name="new" d="M512 796.444l88.178-215.609 13.084-32.427 35.271-2.844 232.107-17.067-178.062-147.342-26.738-22.756 65.422-261.689-229.262 142.791-227.556-141.653 65.422 261.689-26.738 22.756-179.769 149.049 267.378 19.911 13.084 32.427 88.178 212.764zM512 950.044l-140.516-344.747-371.484-27.307 284.444-240.071-88.747-361.813 316.302 194.56 316.302-196.267-88.747 363.52 284.444 240.071-371.484 27.307-140.516 344.747zM220.729 316.871l-39.253 33.564-85.333-72.249 113.778-8.533zM691.769 658.204l50.062-3.413 27.307 110.933-96.711-59.733zM332.231 658.204l19.342 47.787-96.711 60.871 29.582-110.933zM803.271 316.871l11.378-47.218 113.778 8.533-85.333 72.249zM512 105.244l-42.098-25.6 42.098-103.538 42.098 103.538z" />
<glyph unicode="&#xe945;" glyph-name="new-fill" d="M512 950.044l-140.516-344.747-371.484-27.307 284.444-240.071-88.747-361.813 316.302 194.56 316.302-196.267-88.747 363.52 284.444 240.071-371.484 27.307-140.516 344.747zM220.729 316.871l-39.253 33.564-85.333-72.249 113.778-8.533zM691.769 658.204l50.062-3.413 27.307 110.933-96.711-59.733zM332.231 658.204l19.342 47.787-96.711 60.871 29.582-110.933zM803.271 316.871l11.378-47.218 113.778 8.533-85.333 72.249zM512 105.244l-42.098-25.6 42.098-103.538 42.098 103.538z" />
<glyph unicode="&#xe946;" glyph-name="ok" d="M914.204 777.102l-563.2-563.2-241.209 241.209-40.391-40.391 281.6-281.6 603.591 603.591-40.391 40.391z" />
<glyph unicode="&#xe947;" glyph-name="one-level-up" d="M597.333 227.555c-78.564 0-142.222 63.659-142.222 142.222v0 318.009l193.991-194.56 40.391 40.391-262.827 262.827-262.827-262.827 40.391-40.391 193.991 194.56v-318.009c0-109.966 89.145-199.111 199.111-199.111v0h312.889v56.889z" />
<glyph unicode="&#xe948;" glyph-name="ordering" d="M514.276 654.222l-201.387 201.387-201.387-201.387 40.391-40.391 132.551 132.551v-575.716h56.889v575.716l132.551-132.551 40.391 40.391zM912.498 256l-201.387-201.387-201.387 201.387 40.391 40.391 132.551-132.551v575.716h56.889v-575.716l132.551 132.551 40.391-40.391z" />
<glyph unicode="&#xe949;" glyph-name="page" d="M628.622 910.222h-514.844v-910.222h796.444v625.778zM625.778 832.284l204.231-206.507h-204.231zM853.333 56.889h-682.667v796.444h398.222v-284.444h284.444zM455.111 568.889h-170.667v170.667h170.667zM398.222 625.778h-56.889v56.889h56.889zM739.556 341.333h-455.111v56.889h455.111zM739.556 170.667h-455.111v56.889h455.111z" />
<glyph unicode="&#xe94a;" glyph-name="pause" d="M455.111 113.778h-227.556v682.667h227.556zM398.222 747.52h-113.778v-584.818h113.778zM796.444 113.778h-227.556v682.667h227.556zM739.556 747.52h-113.778v-584.818h113.778z" />
<glyph unicode="&#xe94b;" glyph-name="paypal" d="M639.431 604.16c3.3 9.956 5.177 21.447 5.177 33.337 0 22.983-7.054 44.373-19.058 62.009l0.228-0.398c-18.66 24.633-47.957 40.391-80.953 40.391-0.74 0-1.479 0-2.219 0h-122.766l-56.889-250.88h131.982c69.234 2.788 126.635 50.347 144.27 114.404l0.284 1.081zM465.351 682.667h77.369c0.626 0.057 1.308 0.057 1.991 0.057 13.596 0 25.714-6.201 33.792-15.929l0.057-0.057c5.461-8.078 8.704-18.034 8.704-28.729 0-6.201-1.081-12.174-3.129-17.749l0.114 0.341c-9.899-42.155-45.454-73.614-88.917-77.369h-60.7zM828.871 739.555c-4.779 13.995-9.956 25.828-15.986 37.148l0.626-1.308c-39.765 64.284-109.852 106.439-189.781 106.439-1.877 0-3.755 0-5.632-0.057h-371.769l-166.684-768h147.911l-12.516-56.889h204.8l50.631 234.951h145.636c2.56-0.057 5.575-0.114 8.59-0.114 139.036 0 254.805 99.783 279.552 231.595l0.284 1.764c5.063 16.441 7.964 35.385 7.964 54.955 0 65.877-32.825 124.018-83.001 159.118l-0.626 0.398zM292.409 824.889h325.973c0.512 0 1.081 0 1.707 0 60.985 0 114.46-31.972 144.668-80.1l0.398-0.74c10.98-23.211 17.408-50.347 17.408-79.076 0-16.782-2.219-33.052-6.315-48.526l0.284 1.308c-23.268-120.661-128.057-210.603-253.838-210.603-2.389 0-4.722 0.057-7.054 0.114h-170.325l-48.924-236.658h-146.204zM870.969 565.475c-13.028-69.461-49.778-128.626-101.262-170.268l-0.569-0.398c-40.96-31.63-92.956-50.688-149.447-50.688-1.65 0-3.3 0-4.949 0.057h-185.799l-50.062-236.089h-102.969v7.396h65.422l50.062 234.951h124.587c2.446-0.057 5.291-0.114 8.135-0.114 152.519 0 279.552 109.113 307.257 253.554l0.341 1.934c4.665 18.261 7.339 39.253 7.339 60.871s-2.674 42.61-7.737 62.635l0.398-1.764c6.315-5.006 11.89-10.411 16.953-16.327l0.114-0.171c18.091-27.477 28.843-61.156 28.843-97.337 0-17.18-2.446-33.849-6.94-49.55l0.284 1.252z" />
<glyph unicode="&#xe94c;" glyph-name="pinterest" d="M556.373 302.080c-11.662 0.853-22.528 3.072-32.768 6.542l0.91-0.284c-12.8 5.461-23.893 12.174-33.849 20.139l0.284-0.228-25.031 16.498c-10.809-54.67-24.405-102.002-41.358-147.57l2.105 6.485c-12.971-36.807-35.897-67.413-65.479-89.543l-0.512-0.341c-4.039 17.977-6.372 38.628-6.372 59.847 0 14.393 1.081 28.558 3.129 42.439l-0.171-1.536c4.551 39.253 9.671 69.973 14.222 90.453s11.947 48.924 21.618 85.333 15.929 64.853 19.342 85.902c-9.273 19.456-14.677 42.268-14.677 66.332 0 4.267 0.171 8.533 0.512 12.743l-0.057-0.569c2.56 28.046 14.905 52.736 33.564 71.111v0c10.468 11.662 25.6 19.001 42.439 19.001 9.216 0 17.92-2.162 25.6-6.087l-0.341 0.171c17.408-5.632 29.98-21.106 31.289-39.708v-0.114c0.228-3.243 0.398-6.997 0.398-10.752 0-19.228-3.47-37.604-9.842-54.613l0.341 1.081-22.187-68.267c-3.982-10.866-6.258-23.438-6.258-36.58 0-8.818 1.024-17.408 3.015-25.6l-0.171 0.74c5.916-18.716 22.528-32.256 42.553-33.564h0.114c5.234-1.081 11.207-1.707 17.351-1.707 25.714 0 48.868 10.923 65.081 28.388l0.057 0.057c24.121 23.438 41.813 53.362 50.347 86.926l0.284 1.252c6.144 22.073 9.728 47.445 9.728 73.671 0 12.743-0.853 25.316-2.446 37.604l0.171-1.422c-2.731 33.28-15.815 63.090-36.011 86.699l0.171-0.228c-26.112 27.762-62.18 45.966-102.457 48.868l-0.512 0.057c-5.177 0.455-11.15 0.74-17.237 0.74-34.247 0-66.503-8.476-94.834-23.438l1.081 0.512c-34.816-18.489-62.805-45.852-81.408-79.189l-0.512-1.024c-15.303-24.747-24.405-54.727-24.405-86.812 0-9.5 0.796-18.887 2.332-27.932l-0.114 0.967c2.958-10.809 6.827-20.309 11.719-29.127l-0.341 0.683c5.689-9.102 9.671-17.067 13.653-22.756 3.243-6.94 5.177-15.132 5.177-23.723 0-0.853 0-1.707-0.057-2.56v0.114c-1.081-13.881-6.258-26.453-14.336-36.523l0.114 0.114c-64.853 15.36-96.142 67.698-92.16 156.444 0 0.057 0 0.171 0 0.284 0 63.090 27.364 119.751 70.94 158.834l0.171 0.171c41.643 40.448 96.142 67.868 156.786 75.548l1.365 0.114c12.516 1.82 27.022 2.844 41.7 2.844 56.491 0 109.397-15.189 154.852-41.756l-1.479 0.796c53.817-30.663 91.477-84.48 99.442-147.513l0.114-0.967c2.389-14.564 3.755-31.289 3.755-48.356 0-62.805-18.603-121.23-50.574-170.155l0.74 1.195c-30.948-52.964-87.552-88.007-152.292-88.007-6.485 0-12.857 0.341-19.172 1.024l0.796-0.057zM512 967.111c-282.795 0-512-229.205-512-512s229.205-512 512-512c282.795 0 512 229.205 512 512v0c0 282.795-229.205 512-512 512v0zM967.111 455.111c0-251.335-203.776-455.111-455.111-455.111s-455.111 203.776-455.111 455.111c0 251.335 203.776 455.111 455.111 455.111v0c251.335 0 455.111-203.776 455.111-455.111v0z" />
<glyph unicode="&#xe94d;" glyph-name="play" d="M284.444 750.933l512-295.822-512-295.822v591.644zM227.556 849.351v-788.48l682.667 394.24-682.667 394.24z" />
<glyph unicode="&#xe94e;" glyph-name="plus" d="M853.333 455.111h-341.333v341.333h-56.889v-341.333h-341.333v-56.889h341.333v-341.333h56.889v341.333h341.333v56.889z" />
<glyph unicode="&#xe94f;" glyph-name="printer" d="M796.444 568.889v284.444h-568.889v-284.444h-170.667v-398.222h170.667v-113.778h568.889v113.778h170.667v398.222zM284.444 796.444h455.111v-227.556h-455.111zM739.556 113.778h-455.111v113.778h455.111zM910.222 227.555h-113.778v56.889h-568.889v-56.889h-113.778v284.444h796.444z" />
<glyph unicode="&#xe950;" glyph-name="reddit" d="M948.338 449.991c-11.89-18.603-28.558-33.223-48.242-42.382l-0.683-0.284c6.827-19.399 10.809-41.756 10.809-65.024 0-0.341 0-0.683 0-1.024v0.057c-1.536-84.48-46.194-158.151-112.811-200.249l-0.967-0.569c-74.695-52.508-167.481-83.911-267.662-83.911-5.916 0-11.776 0.114-17.636 0.341h0.853c-4.21-0.114-9.102-0.228-14.052-0.228-100.124 0-192.853 31.403-269.028 84.821l1.479-1.024c-68.722 42.041-114.404 115.883-116.622 200.476v0.341c0 0.284 0 0.626 0 0.967 0 23.268 3.982 45.625 11.264 66.389l-0.455-1.422c-20.366 9.444-37.035 24.064-48.64 42.212l-0.284 0.455c-11.776 17.636-18.773 39.31-18.773 62.635 0 31.289 12.629 59.563 33.052 80.156v0c19.797 20.366 47.445 33.052 77.995 33.052 0.967 0 1.934 0 2.901-0.057h-0.171c1.764 0.114 3.868 0.171 5.973 0.171 40.505 0 75.719-22.926 93.298-56.491l0.284-0.569c58.539 32.313 127.716 52.907 201.33 56.832l1.195 0.057 92.729 205.938c3.47 12.117 14.393 20.821 27.42 20.821 4.324 0 8.363-0.967 12.060-2.674l-0.171 0.057 145.636-40.96c12.8 26.51 39.481 44.487 70.372 44.487 1.479 0 2.901-0.057 4.324-0.114h-0.228c0.398 0 0.853 0 1.365 0 23.154 0 44.032-9.614 58.937-25.031v0c15.474-14.905 25.031-35.84 25.031-58.937 0-0.455 0-0.967 0-1.422v0.057c0-0.398 0-0.853 0-1.365 0-23.154-9.614-44.032-25.031-58.937v0c-14.905-15.474-35.84-25.031-58.937-25.031-0.455 0-0.967 0-1.422 0h0.057c-0.171 0-0.341 0-0.569 0-18.204 0-34.987 5.973-48.583 16.1l0.228-0.171c-14.108 10.183-24.917 24.121-31.061 40.334l-0.228 0.626-129.707 37.547-69.404-151.324c76.743-3.755 147.854-24.405 210.887-58.197l-2.674 1.308c18.034 34.133 53.305 57.060 93.924 57.060 1.991 0 3.982-0.057 5.916-0.171h-0.284c62.862 0 113.778-50.916 113.778-113.778v0c0-0.228 0-0.512 0-0.796 0-22.869-6.997-44.089-19.001-61.611l0.228 0.398zM151.893 458.524c19.115 30.72 42.553 56.718 69.86 77.995l0.683 0.512c-9.5 19.001-28.786 31.858-51.086 31.858-0.228 0-0.455 0-0.74 0h0.057c-0.171 0-0.398 0-0.626 0-15.474 0-29.355-6.542-39.14-17.010l-0.057-0.057c-10.354-10.126-16.839-24.178-17.067-39.765v-0.057c-0.057-1.024-0.114-2.162-0.114-3.356 0-23.154 14.848-42.837 35.556-50.005l0.398-0.114zM842.524 341.333c-2.844 66.446-40.846 123.449-95.744 153.145l-0.967 0.455c-62.976 39.765-139.605 63.317-221.696 63.317-4.267 0-8.476-0.057-12.686-0.171h0.626c-3.584 0.114-7.851 0.171-12.117 0.171-82.148 0-158.72-23.609-223.46-64.341l1.764 1.024c-56.036-29.98-94.094-87.040-96.711-153.259v-0.341c2.617-66.56 40.676-123.62 95.744-153.145l0.967-0.455c62.976-39.765 139.605-63.317 221.696-63.317 4.267 0 8.476 0.057 12.686 0.171h-0.626c3.584-0.114 7.851-0.171 12.117-0.171 82.148 0 158.72 23.609 223.46 64.341l-1.764-1.024c55.865 30.151 93.867 87.154 96.711 153.202v0.398zM341.333 455.111c31.403 0 56.889-25.486 56.889-56.889v0c0-0.171 0-0.398 0-0.626 0-15.474-6.542-29.355-17.010-39.14l-0.057-0.057c-10.126-10.354-24.178-16.839-39.765-17.067h-0.057c-31.403 0-56.889 25.486-56.889 56.889v0c0.228 15.588 6.713 29.696 17.067 39.822v0c9.785 10.524 23.723 17.067 39.196 17.067 0.228 0 0.455 0 0.683 0h-0.057zM512 238.364c-1.081 0-2.332-0.057-3.584-0.057-42.951 0-82.546 14.564-114.005 39.026l0.398-0.341c-6.030 4.665-13.71 7.452-22.073 7.452-0.626 0-1.308 0-1.934-0.057h0.114c-9.102-0.398-17.124-5.006-22.13-11.89l-0.057-0.057c-4.779-5.632-7.68-12.914-7.68-20.935 0-1.422 0.114-2.844 0.284-4.267v0.171c0.967-9.102 5.632-16.953 12.459-22.13l0.057-0.057c41.87-34.020 95.915-54.613 154.681-54.613 1.195 0 2.446 0 3.641 0h-0.171c1.422-0.057 3.129-0.057 4.836-0.057 58.197 0 111.673 20.196 153.771 53.874l-0.512-0.398c6.884 5.234 11.548 13.084 12.516 22.073v0.114c0.171 1.195 0.228 2.617 0.228 4.039 0 7.908-2.674 15.246-7.111 21.049l0.057-0.057c-5.404 6.827-13.483 11.378-22.642 11.947h-0.114c-0.967 0.114-2.105 0.171-3.243 0.171-7.737 0-14.848-2.389-20.764-6.485l0.114 0.057c-31.061-24.178-70.656-38.741-113.607-38.741-1.252 0-2.503 0-3.755 0.057h0.171zM682.667 455.111c31.403 0 56.889-25.486 56.889-56.889v0c0-0.171 0-0.398 0-0.626 0-15.474-6.542-29.355-17.010-39.14l-0.057-0.057c-10.126-10.354-24.178-16.839-39.765-17.067h-0.057c-31.403 0-56.889 25.486-56.889 56.889v0c0.228 15.588 6.713 29.696 17.067 39.822v0c9.785 10.524 23.723 17.067 39.196 17.067 0.228 0 0.455 0 0.683 0h-0.057zM793.031 768c0-0.228 0-0.512 0-0.796 0-8.533 3.755-16.156 9.671-21.333h0.057c5.689-5.689 13.54-9.216 22.187-9.216 17.351 0 31.403 14.052 31.403 31.403 0 8.647-3.527 16.498-9.216 22.187v0c-5.518 5.973-13.426 9.728-22.187 9.728s-16.668-3.755-22.187-9.728v0c-5.973-5.234-9.671-12.857-9.671-21.39 0-0.284 0-0.569 0-0.853v0.057zM910.222 512c0 0.455 0 0.967 0 1.479 0 31.403-25.486 56.889-56.889 56.889-22.869 0-42.61-13.54-51.655-32.996l-0.171-0.341c28.786-21.959 53.134-47.9 72.647-77.312l0.74-1.195c20.821 7.623 35.385 27.25 35.385 50.29 0 1.138-0.057 2.219-0.114 3.3v-0.171z" />
<glyph unicode="&#xe951;" glyph-name="refresh" d="M512 853.333c144.441-0.341 270.791-77.483 340.309-192.796l1.024-1.764 49.493 234.382 56.889-11.947-72.249-333.938-333.938 71.111 11.947 56.889 242.916-51.769c-59.506 105.131-170.61 174.933-298.041 174.933-188.53 0-341.333-152.804-341.333-341.333s152.804-341.333 341.333-341.333c127.374 0 238.478 69.803 297.131 173.227l0.91 1.707 50.062-27.876c-69.177-123.676-199.339-205.938-348.729-205.938-219.932 0-398.222 178.29-398.222 398.222s178.29 398.222 398.222 398.222c0.796 0 1.593 0 2.389 0h-0.114z" />
<glyph unicode="&#xe952;" glyph-name="search" d="M967.111 120.604l-218.453 220.729c29.639 48.754 47.332 107.577 47.787 170.553v0.114c0 188.53-152.804 341.333-341.333 341.333s-341.333-152.804-341.333-341.333c0-188.53 152.804-341.333 341.333-341.333v0c63.090 0.455 121.913 18.148 172.146 48.64l-1.479-0.853 220.729-218.453zM170.667 512c0 157.070 127.374 284.444 284.444 284.444s284.444-127.374 284.444-284.444c0-157.070-127.374-284.444-284.444-284.444v0c-157.070 0-284.444 127.374-284.444 284.444v0zM715.662 291.84l170.667-170.667-40.391-40.391-170.667 170.667c14.677 12.459 27.932 25.714 39.993 39.879l0.398 0.512z" />
<glyph unicode="&#xe953;" glyph-name="search-small" d="M880.071 126.862l-205.369 205.938c39.936 48.583 64.114 111.445 64.114 179.94 0 157.070-127.374 284.444-284.444 284.444s-284.444-127.374-284.444-284.444c0-157.070 127.374-284.444 284.444-284.444 68.494 0 131.3 24.178 180.395 64.512l-0.512-0.398 205.938-205.369zM455.111 284.444c-125.668 0-227.556 101.888-227.556 227.556s101.888 227.556 227.556 227.556c125.668 0 227.556-101.888 227.556-227.556v0c0-125.668-101.888-227.556-227.556-227.556v0z" />
<glyph unicode="&#xe954;" glyph-name="settings" d="M455.111 796.444c-13.653 65.479-70.827 113.892-139.378 113.892s-125.724-48.469-139.207-112.981l-0.171-0.91h-119.467v-56.889h116.622c10.183-69.461 69.348-122.14 140.8-122.14s130.617 52.736 140.686 121.401l0.114 0.796h512v56.889zM312.889 682.667c-47.104 0-85.333 38.229-85.333 85.333s38.229 85.333 85.333 85.333c47.104 0 85.333-38.229 85.333-85.333v0c0-47.104-38.229-85.333-85.333-85.333v0zM56.889 455.111v-56.889h514.844c10.183-69.461 69.348-122.14 140.8-122.14s130.617 52.736 140.686 121.401l0.114 0.796h113.778v56.889h-113.778c-13.653 65.479-70.827 113.948-139.378 113.948s-125.724-48.469-139.207-112.981l-0.171-0.91zM625.778 426.667c0 47.104 38.229 85.333 85.333 85.333s85.333-38.229 85.333-85.333c0-47.104-38.229-85.333-85.333-85.333v0c-47.104 0-85.333 38.229-85.333 85.333v0zM455.111 113.778c-13.653 65.479-70.827 113.892-139.378 113.892s-125.724-48.469-139.207-112.981l-0.171-0.91h-119.467v-56.889h116.622c10.183-69.461 69.348-122.14 140.8-122.14s130.617 52.736 140.686 121.401l0.114 0.796h512v56.889zM312.889 0c-47.104 0-85.333 38.229-85.333 85.333s38.229 85.333 85.333 85.333c47.104 0 85.333-38.229 85.333-85.333v0c0-47.104-38.229-85.333-85.333-85.333v0z" />
<glyph unicode="&#xe955;" glyph-name="share" d="M910.222 512v-512h-853.333v512h284.444v-56.889h-227.556v-398.222h739.556v398.222h-227.556v56.889zM455.111 341.333h56.889v460.231l137.102-137.671 40.391 40.391-205.938 205.938-205.938-205.938 40.391-40.391 137.102 137.671z" />
<glyph unicode="&#xe956;" glyph-name="shopping-cart" d="M739.556 227.555h-353.849l-28.444 113.778h467.627l85.333 341.333h-638.293l-44.373 170.667h-170.667v-56.889h128l113.778-455.111 29.013-113.778c-56.206-7.509-99.1-55.182-99.1-112.811 0-62.862 50.916-113.778 113.778-113.778s113.778 50.916 113.778 113.778c0 20.537-5.461 39.822-15.019 56.491l0.284-0.569h202.524c-9.557-16.327-15.246-35.897-15.246-56.832 0-62.862 50.916-113.778 113.778-113.778s113.778 50.916 113.778 113.778c0 62.862-50.916 113.778-113.778 113.778-1.024 0-2.105 0-3.129-0.057h0.171zM837.404 625.778l-56.889-227.556h-439.182l-56.889 227.556zM341.333 56.889c-31.403 0-56.889 25.486-56.889 56.889s25.486 56.889 56.889 56.889c31.403 0 56.889-25.486 56.889-56.889v0c0-31.403-25.486-56.889-56.889-56.889v0zM739.556 56.889c-31.403 0-56.889 25.486-56.889 56.889s25.486 56.889 56.889 56.889c31.403 0 56.889-25.486 56.889-56.889v0c0-31.403-25.486-56.889-56.889-56.889v0z" />
<glyph unicode="&#xe957;" glyph-name="shopping-cart-add" d="M711.111 341.333v0c172.26 0.74 311.58 140.516 311.58 312.889 0 172.828-140.060 312.889-312.889 312.889-162.816 0-296.562-124.302-311.524-283.193l-0.114-1.252h-183.182l-44.373 170.667h-170.667v-56.889h128l113.778-455.111 29.013-113.778c-56.206-7.509-99.1-55.182-99.1-112.811 0-62.862 50.916-113.778 113.778-113.778s113.778 50.916 113.778 113.778c0 20.537-5.461 39.822-15.019 56.491l0.284-0.569h202.524c-9.557-16.327-15.246-35.897-15.246-56.832 0-62.862 50.916-113.778 113.778-113.778s113.778 50.916 113.778 113.778c0 62.862-50.916 113.778-113.778 113.778-1.024 0-2.105 0-3.129-0.057h-353.678l-28.444 113.778zM682.667 170.667c31.403 0 56.889-25.486 56.889-56.889s-25.486-56.889-56.889-56.889c-31.403 0-56.889 25.486-56.889 56.889v0c0 31.403 25.486 56.889 56.889 56.889v0zM341.333 113.778c0-31.403-25.486-56.889-56.889-56.889s-56.889 25.486-56.889 56.889c0 31.403 25.486 56.889 56.889 56.889v0c31.403 0 56.889-25.486 56.889-56.889v0zM284.444 398.222l-56.889 227.556h170.667c8.647-94.379 58.14-175.673 130.446-226.93l0.967-0.626zM711.111 910.222c141.369 0 256-114.631 256-256s-114.631-256-256-256c-141.369 0-256 114.631-256 256v0c0 0.171 0 0.341 0 0.569 0 141.084 114.347 255.431 255.431 255.431 0.228 0 0.398 0 0.626 0h-0.057zM910.222 625.778h-170.667v-170.667h-56.889v170.667h-170.667v56.889h170.667v170.667h56.889v-170.667h170.667z" />
<glyph unicode="&#xe958;" glyph-name="show-bottom-panel" d="M967.111 0v56.889h-56.889v113.778h-853.333v-113.778h-56.889v-56.889zM853.333 56.889h-739.556v56.889h739.556zM455.111 673.564l-137.102-137.671-40.391 40.391 205.938 205.938 205.938-205.938-40.391-40.391-137.102 137.671v-389.12h-56.889z" />
<glyph unicode="&#xe959;" glyph-name="show-top-panel" d="M0 910.222v-56.889h56.889v-113.778h853.333v113.778h56.889v56.889zM853.333 796.444h-739.556v56.889h739.556zM455.111 625.778h56.889v-389.12l137.102 137.671 40.391-40.391-205.938-205.938-205.938 205.938 40.391 40.391 137.102-137.671z" />
<glyph unicode="&#xe95a;" glyph-name="site" horiz-adv-x="1081" d="M967.111 341.333v170.667h-398.222v113.778h113.778v284.444h-284.444v-284.444h113.778v-113.778h-398.222v-170.667h-113.778v-284.444h284.444v284.444h-113.778v113.778h341.333v-113.778h-113.778v-284.444h284.444v284.444h-113.778v113.778h341.333v-113.778h-113.778v-284.444h284.444v284.444zM455.111 682.667v170.667h170.667v-170.667zM227.556 284.444v-170.667h-170.667v170.667zM625.778 284.444v-170.667h-170.667v170.667zM1024 113.778h-170.667v170.667h170.667z" />
<glyph unicode="&#xe95b;" glyph-name="skype" d="M685.511 29.013c-0.284 0-0.569 0-0.91 0-41.188 0-80.043 10.126-114.233 27.932l1.365-0.626c-17.522-2.731-37.717-4.267-58.311-4.267-110.706 0-210.83 45.17-282.965 118.044l-0.057 0.057c-74.581 73.842-120.718 176.242-120.718 289.451 0 20.309 1.479 40.277 4.38 59.79l-0.284-2.219c-16.156 31.858-25.6 69.461-25.6 109.227 0 68.551 28.103 130.56 73.387 175.161l0.057 0.057c44.885 47.388 108.26 76.914 178.574 76.914 38.514 0 74.923-8.875 107.349-24.633l-1.479 0.626c18.773 3.072 40.391 4.836 62.464 4.836 112.526 0 214.414-45.796 287.972-119.751v0c73.216-72.249 118.613-172.601 118.613-283.534 0-21.788-1.764-43.236-5.12-64.057l0.284 2.276c17.067-32.54 27.136-71.168 27.136-112.071 0-69.803-29.127-132.779-75.947-177.38l-0.114-0.114c-44.715-45.909-106.78-74.638-175.616-75.662h-0.171zM583.111 113.778l9.102-4.551c26.453-15.019 58.14-23.893 91.932-23.893 53.191 0 101.262 22.016 135.566 57.401l0.057 0.057c36.352 34.759 58.994 83.684 58.994 137.842 0 34.19-8.988 66.276-24.804 94.037l0.512-0.967-1.138 10.809v10.24c3.755 18.944 5.916 40.676 5.916 62.919 0 94.265-38.628 179.541-100.864 240.811l-0.057 0.057c-62.692 64.228-150.073 104.050-246.784 104.050-22.983 0-45.454-2.276-67.129-6.542l2.162 0.341h-10.24l-8.533 4.551c-25.828 14.108-56.604 22.357-89.316 22.357-54.5 0-103.595-22.983-138.126-59.79l-0.114-0.114c-35.499-34.532-57.515-82.83-57.515-136.192 0-33.508 8.647-64.967 23.893-92.331l-0.512 0.967 4.551-9.102v-9.671c-3.072-17.408-4.836-37.433-4.836-57.913 0-97.564 39.936-185.799 104.334-249.23l0.057-0.057c61.895-62.635 147.854-101.433 242.802-101.433 21.163 0 41.87 1.934 61.952 5.632l-2.105-0.341zM512 227.555c-133.689 0-193.422 65.991-193.422 113.778 0 0 0 0 0 0 0 23.495 18.716 42.61 42.041 43.236h0.057c56.889 0 42.667-82.489 149.049-82.489 56.889 0 84.764 29.582 84.764 60.302 0 18.204-9.102 38.116-44.942 47.218l-114.916 29.582c-95.573 24.462-113.778 76.231-113.778 124.587 0 101.262 95.004 139.378 184.32 139.378s177.493-45.511 177.493-106.382c-1.252-22.869-20.082-41.017-43.179-41.017-0.626 0-1.252 0-1.877 0.057h-2.731c-46.649 0-37.547 69.973-135.964 69.973-48.924 0-75.662-22.187-75.662-56.889s38.116-41.529 71.68-48.924l88.178-19.911c96.142-21.618 120.604-77.938 120.604-130.844 0-84.764-63.147-141.653-191.716-141.653zM880.64 389.12s0 0 0 0z" />
<glyph unicode="&#xe95c;" glyph-name="star" d="M512 796.444l88.178-215.609 13.084-32.427 35.271-2.844 232.107-17.067-178.062-147.342-26.738-22.756 65.422-261.689-229.262 142.791-227.556-141.653 65.422 261.689-26.738 22.756-179.769 149.049 267.378 19.911 13.084 32.427 88.178 212.764zM512 950.044l-140.516-344.747-371.484-27.307 284.444-240.071-88.747-361.813 316.302 194.56 316.302-196.267-88.747 363.52 284.444 240.071-371.484 27.307-140.516 344.747z" />
<glyph unicode="&#xe95d;" glyph-name="start" d="M739.556 651.947v-393.671l-341.333 196.836 341.333 196.836zM796.444 750.933l-512-295.822 512-295.822v591.644zM227.556 170.667h56.889v568.889h-56.889z" />
<glyph unicode="&#xe95e;" glyph-name="stop" d="M853.333 113.778h-682.667v682.667h682.667zM796.444 739.555h-568.889v-568.889h568.889z" />
<glyph unicode="&#xe95f;" glyph-name="stumbleupon" d="M568.889 638.293v-56.889l40.96-21.618 72.818 23.324v56.889c-0.569 43.918-19.968 83.228-50.46 110.251l-0.171 0.114c-30.436 28.558-71.509 46.137-116.679 46.137-1.195 0-2.332 0-3.527-0.057h0.171c-0.967 0-2.048 0.057-3.186 0.057-46.137 0-87.78-19.172-117.362-50.062l-0.057-0.057c-30.891-29.639-50.119-71.282-50.119-117.419 0-1.138 0-2.219 0.057-3.356v0.171-227.556c0-0.171 0-0.398 0-0.626 0-15.474-6.542-29.355-17.010-39.14l-0.057-0.057c-10.126-10.354-24.178-16.839-39.765-17.067h-0.057c-0.171 0-0.398 0-0.626 0-15.474 0-29.355 6.542-39.14 17.010l-0.057 0.057c-10.524 9.785-17.067 23.723-17.067 39.196 0 0.228 0 0.455 0 0.683v-0.057 113.778h-113.778v-113.778c0-94.265 76.402-170.667 170.667-170.667v0c94.265 0 170.667 76.402 170.667 170.667v0 227.556c0.228 15.588 6.713 29.696 17.067 39.822v0c9.785 10.524 23.723 17.067 39.196 17.067 0.228 0 0.455 0 0.683 0h-0.057c0.626 0 1.365 0.057 2.162 0.057 14.45 0 27.705-5.404 37.717-14.336l-0.057 0.057c9.728-6.827 16.213-17.636 17.067-30.037v-0.114zM910.222 398.222v113.778h-113.778v-113.778c0-0.171 0-0.398 0-0.626 0-15.474-6.542-29.355-17.010-39.14l-0.057-0.057c-10.126-10.354-24.178-16.839-39.765-17.067h-0.057c-0.341 0-0.683 0-1.081 0-16.043 0-30.322 7.282-39.822 18.716l-0.057 0.057c-10.012 12.516-16.1 28.558-16.1 46.023 0 1.593 0.057 3.243 0.171 4.836v-0.228 110.364l-72.818-21.618-40.96 21.618v-110.364c-0.057-1.65-0.114-3.641-0.114-5.575 0-48.583 19.115-92.729 50.233-125.326l-0.057 0.057c29.468-32.199 71.623-52.338 118.556-52.338 0.74 0 1.422 0 2.162 0h-0.114c94.265 0 170.667 76.402 170.667 170.667v0zM1024 455.111c0-282.795-229.205-512-512-512s-512 229.205-512 512c0 282.795 229.205 512 512 512v0c282.795 0 512-229.205 512-512v0zM512 910.222c-251.335 0-455.111-203.776-455.111-455.111s203.776-455.111 455.111-455.111c251.335 0 455.111 203.776 455.111 455.111v0c0 251.335-203.776 455.111-455.111 455.111v0z" />
<glyph unicode="&#xe960;" glyph-name="tag" d="M193.422 853.333h238.933c26.51-0.796 51.428-6.77 74.012-17.010l-1.195 0.512c24.69-9.785 45.852-23.495 63.829-40.448l-0.114 0.057 375.467-375.467c14.393-13.881 23.324-33.337 23.324-54.898 0-0.683 0-1.365 0-2.105v0.114c-0.284-22.13-9.102-42.155-23.324-56.889v0l-284.444-284.444c-14.734-14.222-34.759-23.040-56.832-23.324h-0.057c-0.569 0-1.308 0-1.991 0-21.561 0-41.017 8.932-54.898 23.324v0l-375.467 375.467c-16.668 17.749-30.151 38.684-39.367 61.838l-0.455 1.308c-9.956 21.504-16.156 46.649-17.067 73.045v239.275c0 43.975 35.669 79.644 79.644 79.644v0zM193.422 796.444c-0.341 0-0.796 0.057-1.195 0.057-6.087 0-11.548-2.617-15.303-6.827v0c-3.868-3.755-6.315-8.988-6.315-14.791 0-0.398 0-0.796 0.057-1.195v0.057-238.933c0.796-18.716 5.12-36.181 12.288-52.053l-0.341 0.853c6.94-17.351 16.384-32.199 27.989-45.056l-0.114 0.114 375.467-374.898c8.533-9.102 17.067-14.791 33.564 0l284.444 284.444c4.21 4.039 6.827 9.728 6.827 16.043 0 0.341 0 0.74 0 1.081v-0.057c0.057 0.398 0.057 0.91 0.057 1.365 0 5.689-2.674 10.695-6.827 13.938l-376.092 376.092c-12.459 11.662-27.193 21.106-43.463 27.534l-0.91 0.341c-15.019 6.827-32.484 11.15-50.916 11.947h-0.284zM284.444 739.555c-31.403 0-56.889-25.486-56.889-56.889s25.486-56.889 56.889-56.889c31.403 0 56.889 25.486 56.889 56.889v0c0 31.403-25.486 56.889-56.889 56.889v0z" />
<glyph unicode="&#xe961;" glyph-name="text-document" d="M628.622 910.222h-514.844v-910.222h796.444v625.778zM625.778 832.284l204.231-206.507h-204.231zM853.333 56.889h-682.667v796.444h398.222v-284.444h284.444zM455.111 682.667h-170.667v56.889h170.667zM455.111 512h-170.667v56.889h170.667zM739.556 341.333h-455.111v56.889h455.111zM739.556 170.667h-455.111v56.889h455.111z" />
<glyph unicode="&#xe962;" glyph-name="thumbnails" d="M455.111 512h-398.222v398.222h398.222zM398.222 853.333h-284.444v-284.444h284.444zM967.111 512h-398.222v398.222h398.222zM910.222 853.333h-284.444v-284.444h284.444zM455.111 0h-398.222v398.222h398.222zM398.222 341.333h-284.444v-284.444h284.444zM967.111 0h-398.222v398.222h398.222zM910.222 341.333h-284.444v-284.444h284.444z" />
<glyph unicode="&#xe963;" glyph-name="thumbnails-9" d="M284.444 625.778h-284.444v284.444h284.444zM227.556 853.333h-170.667v-170.667h170.667zM625.778 625.778h-284.444v284.444h284.444zM568.889 853.333h-170.667v-170.667h170.667zM284.444 284.444h-284.444v284.444h284.444zM227.556 512h-170.667v-170.667h170.667zM625.778 284.444h-284.444v284.444h284.444zM568.889 512h-170.667v-170.667h170.667zM967.111 625.778h-284.444v284.444h284.444zM910.222 853.333h-170.667v-170.667h170.667zM967.111 284.444h-284.444v284.444h284.444zM910.222 512h-170.667v-170.667h170.667zM284.444-56.889h-284.444v284.444h284.444zM227.556 170.667h-170.667v-170.667h170.667zM625.778-56.889h-284.444v284.444h284.444zM568.889 170.667h-170.667v-170.667h170.667zM967.111-56.889h-284.444v284.444h284.444zM910.222 170.667h-170.667v-170.667h170.667z" />
<glyph unicode="&#xe964;" glyph-name="time" d="M967.111 426.667c0-267.036-216.519-483.556-483.556-483.556s-483.556 216.519-483.556 483.556c0 267.036 216.519 483.556 483.556 483.556v0c266.923-0.341 483.214-216.633 483.556-483.499v-0.057zM483.556 853.333c-235.634 0-426.667-191.033-426.667-426.667s191.033-426.667 426.667-426.667c235.634 0 426.667 191.033 426.667 426.667v0c0 235.634-191.033 426.667-426.667 426.667v0zM512 796.444h-56.889v-56.889h56.889zM512 113.778h-56.889v-56.889h56.889zM853.333 398.222v56.889h-56.889v-56.889zM170.667 398.222v56.889h-56.889v-56.889zM792.462 612.124c-5.234 8.249-14.279 13.653-24.633 13.653-5.404 0-10.468-1.479-14.791-4.039l0.114 0.057-270.222-162.133-157.582 91.022c-3.413 1.593-7.452 2.503-11.719 2.503-15.701 0-28.444-12.743-28.444-28.444 0-9.444 4.608-17.749 11.662-22.926l0.057-0.057 170.667-99.556c3.698-2.162 8.192-3.413 12.914-3.413 0.057 0 0.114 0 0.171 0v0c4.836 0.512 9.273 1.934 13.255 4.096l-0.171-0.114 284.444 170.667c10.069 4.665 16.953 14.734 16.953 26.396 0 4.437-1.024 8.704-2.788 12.459l0.057-0.171z" />
<glyph unicode="&#xe965;" glyph-name="trash" d="M682.667 512h-56.889l-14.222-398.222h56.889l14.222 398.222zM455.111 512h56.889v-398.222h-56.889v398.222zM355.556 113.778l-14.222 398.222h-56.889l14.222-398.222h56.889zM768 796.444h-85.333v56.889c0 31.403-25.486 56.889-56.889 56.889v0h-284.444c-31.403 0-56.889-25.486-56.889-56.889v0-56.889h-85.333c-47.104 0-85.333-38.229-85.333-85.333v0-85.333l56.889-625.778h625.778l56.889 625.778v85.333c0 47.104-38.229 85.333-85.333 85.333v0zM341.333 839.111c0 7.851 6.372 14.222 14.222 14.222v0h256c7.851 0 14.222-6.372 14.222-14.222v0-42.667h-284.444zM744.676 56.889h-522.24l-46.080 512h614.4zM796.444 625.778h-625.778v73.387c0 22.3 18.091 40.391 40.391 40.391v0h544.996c22.3 0 40.391-18.091 40.391-40.391v0z" />
<glyph unicode="&#xe966;" glyph-name="tumblr" d="M537.031 771.413v-145.636h145.636v-113.778h-145.636v-161.564c-0.228-4.722-0.398-10.24-0.398-15.815 0-17.692 1.365-35.1 4.039-52.053l-0.228 1.877c5.291-11.548 13.938-20.764 24.747-26.567l0.284-0.171c12.402-7.851 27.534-12.572 43.748-12.572 0.796 0 1.65 0 2.446 0.057h-0.114c35.897 0.853 69.063 12.004 96.825 30.549l-0.683-0.398v-97.849c-20.992-10.524-45.568-19.854-71.168-26.681l-2.788-0.626c-20.992-5.063-45.056-7.964-69.803-7.964-0.057 0-0.114 0-0.171 0v0c-24.064 0.114-47.161 4.267-68.608 11.833l1.479-0.455c-21.788 7.851-40.619 18.489-57.344 31.63l0.455-0.341c-14.222 10.98-25.316 25.372-32.199 41.984l-0.228 0.683c-5.916 17.18-9.273 36.978-9.273 57.628 0 2.958 0.057 5.86 0.228 8.818v-0.398 218.453h-85.333v90.453c27.136 7.623 50.802 19.342 71.737 34.588l-0.626-0.455c17.18 15.076 31.46 32.939 42.155 53.020l0.512 1.024c11.321 23.552 19.058 50.972 21.561 79.872l0.057 0.91h88.747zM593.92 828.302h-195.698l-5.689-50.631c-1.991-22.471-7.851-43.122-16.953-61.952l0.455 1.081c-7.68-14.62-17.351-27.022-28.9-37.433l-0.114-0.114c-14.905-9.273-32.142-16.896-50.404-21.845l-1.365-0.341-39.253-13.084v-188.871h85.333v-163.271c-0.114-2.731-0.171-5.973-0.171-9.159 0-27.648 4.665-54.215 13.198-79.019l-0.512 1.707c11.093-26.624 28.217-48.868 49.721-65.707l0.341-0.284c20.992-17.351 45.568-31.289 72.306-40.448l1.65-0.512c25.6-9.273 55.068-14.677 85.845-14.791h0.057c0.114 0 0.284 0 0.455 0 29.525 0 58.197 3.527 85.618 10.183l-2.503-0.512c32.654 8.761 60.814 19.399 87.552 32.54l-2.788-1.252 32.427 15.36v238.933l-87.609-56.889c-18.375-12.743-40.846-20.651-65.195-21.618h-0.228c-0.569-0.057-1.195-0.057-1.877-0.057-4.949 0-9.614 1.308-13.596 3.527l0.114-0.057c0 7.396 0 21.049 0 45.511v105.813h143.36v227.556h-145.636v145.636zM910.222 910.222c31.403 0 56.889-25.486 56.889-56.889v0-796.444c0-31.403-25.486-56.889-56.889-56.889v0h-796.444c-31.403 0-56.889 25.486-56.889 56.889v0 796.444c0 31.403 25.486 56.889 56.889 56.889v0h796.444zM910.222 967.111h-796.444c-62.862 0-113.778-50.916-113.778-113.778v0-796.444c0-62.862 50.916-113.778 113.778-113.778v0h796.444c62.862 0 113.778 50.916 113.778 113.778v0 796.444c0 62.862-50.916 113.778-113.778 113.778v0z" />
<glyph unicode="&#xe967;" glyph-name="twitter" d="M686.080 824.889c1.65 0.057 3.584 0.114 5.575 0.114 51.826 0 98.532-21.845 131.47-56.889l0.114-0.114c44.772 8.363 84.651 23.78 120.548 45.284l-1.65-0.91c-14.165-43.861-42.951-79.701-80.555-102.514l-0.796-0.455c39.538 5.177 75.435 15.758 108.715 31.118l-2.332-0.967c-25.316-38.229-55.922-70.656-91.193-97.109l-0.967-0.74v-23.324c-0.284-67.413-13.426-131.698-37.092-190.635l1.252 3.47c-25.316-65.536-59.335-122.027-101.376-171.52l0.683 0.853c-46.194-53.191-103.14-95.744-167.595-124.53l-3.072-1.195c-64.91-30.208-140.914-47.844-221.070-47.844-2.276 0-4.551 0-6.827 0.057h0.341c-105.301 0.114-203.264 31.289-285.298 84.878l1.991-1.252q21.618 0 44.373 0c0.796 0 1.707 0 2.617 0 87.381 0 167.765 29.98 231.424 80.27l-0.796-0.626c-0.74 0-1.593 0-2.446 0-39.31 0-75.605 12.8-104.96 34.475l0.512-0.341c-30.322 23.666-53.362 55.353-66.162 91.876l-0.398 1.422c10.752-2.162 23.154-3.413 35.84-3.413v0c0.284 0 0.626 0 0.967 0 17.237 0 33.963 2.048 50.005 5.973l-1.422-0.284c-44.715 7.964-83.001 31.175-110.137 64l-0.228 0.284c-25.828 31.118-41.529 71.509-41.529 115.541 0 0.569 0 1.138 0 1.764v-0.114 3.982c23.666-14.62 52.395-23.324 83.172-23.324 0.171 0 0.341 0 0.512 0v0c-50.517 31.346-83.684 86.528-83.684 149.447 0 1.877 0.057 3.755 0.114 5.575v-0.284c0 0.228 0 0.512 0 0.74 0 34.702 9.956 67.072 27.193 94.436l-0.455-0.74c45.909-57.572 102.798-104.334 167.765-137.5l2.901-1.308c62.236-32.939 135.623-53.589 213.447-56.832l1.024-0.057c-3.641 12.572-5.689 26.965-5.689 41.87 0 0.284 0 0.569 0 0.796v-0.057c0 0.455 0 1.024 0 1.593 0 51.655 21.845 98.19 56.775 130.901l0.114 0.114c33.109 34.816 79.701 56.604 131.356 56.889h0.057zM944.924 813.511v0zM686.080 881.778c-0.626 0-1.365 0-2.105 0-65.991 0-125.611-26.965-168.562-70.542v0c-40.562-38.571-67.129-91.477-71.623-150.528l-0.057-0.796c-47.673 8.875-90.169 23.893-129.365 44.43l2.503-1.195c-60.245 30.663-110.706 72.192-150.585 122.539l-0.683 0.91c-10.468 13.141-26.453 21.504-44.373 21.618h-3.982c-19.058-1.308-35.442-11.776-44.828-27.079l-0.114-0.228c-21.788-34.93-34.702-77.312-34.702-122.709 0-0.455 0-0.91 0-1.365v0.057c0.74-33.223 7.794-64.569 19.968-93.241l-0.626 1.65c-10.126-10.24-16.441-24.292-16.498-39.822v-3.982c0.398-58.596 21.845-112.071 57.173-153.372l-0.284 0.341 12.516-14.222c-2.048-5.348-3.186-11.492-3.186-17.92s1.195-12.572 3.3-18.261l-0.114 0.341c16.612-48.868 46.251-89.714 84.764-119.58l0.569-0.455h2.844c-26.567-7.964-57.173-12.516-88.804-12.516-0.967 0-1.991 0-2.958 0h0.171c-13.653 0-26.738 0-39.822 0h-9.671c-0.057 0-0.114 0-0.171 0-24.917 0-46.080-15.986-53.76-38.286l-0.114-0.398c-1.991-5.518-3.072-11.89-3.072-18.489 0-20.139 10.411-37.774 26.169-47.9l0.228-0.114c89.145-57.742 198.144-92.103 315.164-92.16v0c1.707 0 3.698 0 5.689 0 89.088 0 173.625 19.74 249.401 55.012l-3.641-1.536c74.24 33.678 136.875 81.010 187.164 139.264l0.569 0.683c45.056 53.362 82.148 115.314 108.26 182.727l1.536 4.437c24.348 60.302 38.741 130.219 39.253 203.435v0.228c32.085 27.079 59.733 57.97 82.603 92.274l1.024 1.593c5.803 8.761 9.273 19.513 9.273 31.118 0 14.222-5.234 27.25-13.881 37.205l0.057-0.057c-4.437 5.234-9.728 9.614-15.644 12.914l-0.284 0.171c2.674 6.372 4.267 13.824 4.267 21.618 0 31.346-25.316 56.718-56.604 56.889v0c-10.126-0.512-19.456-3.413-27.591-8.135l0.284 0.171c-21.106-12.516-45.454-23.211-71.111-30.72l-2.276-0.569c-39.993 33.337-91.876 53.532-148.48 53.532-1.82 0-3.584 0-5.404-0.057h0.284z" />
<glyph unicode="&#xe968;" glyph-name="upload" d="M455.111 341.333h56.889v389.12l193.991-194.56 40.391 40.391-262.827 262.827-262.827-262.827 39.822-40.391 194.56 194.56v-389.12zM853.333 284.444v-170.667h-739.556v170.667h-56.889v-227.556h853.333v227.556h-56.889z" />
<glyph unicode="&#xe969;" glyph-name="user" d="M753.778 244.622c-51.257 14.905-90.567 55.125-103.879 105.927l-0.228 1.024c21.504 33.906 40.676 72.988 55.58 114.119l1.308 4.21c41.244 19.172 70.827 57.23 77.824 102.798l0.114 0.74c2.674 7.68 4.21 16.555 4.21 25.771 0 33.166-20.025 61.724-48.64 74.126l-0.512 0.228c1.593 9.956 2.56 21.447 2.56 33.109 0 50.859-17.465 97.564-46.706 134.599l0.341-0.455c-43.804 43.122-103.993 69.746-170.382 69.746-4.722 0-9.387-0.114-13.995-0.398l0.626 0.057c-4.665 0.341-10.069 0.512-15.531 0.512-66.446 0-126.692-26.681-170.553-69.916v0c-27.762-36.124-44.43-81.977-44.43-131.698 0-12.572 1.081-24.86 3.129-36.807l-0.171 1.308c-28.103-13.084-47.218-41.017-47.218-73.444 0-9.557 1.65-18.716 4.722-27.193l-0.171 0.569c6.656-45.852 35.385-83.797 74.866-103.196l0.796-0.341c16.213-45.34 35.385-84.423 58.368-120.832l-1.479 2.503c-13.54-51.826-52.85-92.046-103.026-106.667l-1.081-0.284c-81.351-30.72-156.444-70.542-156.444-154.738v-19.342l18.204-6.827c109.227-40.391 235.406-63.772 367.047-63.772 4.551 0 9.102 0 13.71 0.057h-0.683c3.868-0.057 8.42-0.057 12.971-0.057 131.641 0 257.82 23.381 374.556 66.219l-7.566-2.446 18.204 6.827v19.342c0 84.196-75.093 124.018-156.444 154.738zM360.676 519.395h-17.067c-25.6 3.413-42.667 36.978-48.924 64.853s0 33.564 25.031 40.391l25.031 5.689-3.413 27.876c-3.356 12.8-5.291 27.534-5.291 42.667 0 38.457 12.459 74.012 33.508 102.912l-0.341-0.512c33.451 31.346 78.62 50.631 128.228 50.631 5.12 0 10.183-0.228 15.189-0.626l-0.683 0.057c4.38 0.341 9.444 0.569 14.564 0.569 49.664 0 94.777-19.285 128.341-50.745l-0.114 0.114c20.708-28.388 33.166-63.943 33.166-102.4 0-15.132-1.934-29.867-5.575-43.861l0.284 1.195-3.413-25.6 25.031-5.689c25.031-6.827 30.72-15.36 25.031-40.391s-23.324-61.44-46.649-64.853h-17.067l-5.689-16.498c-34.133-94.436-87.040-192.284-147.911-192.284s-113.778 97.849-145.636 190.009zM173.511 109.227c7.964 26.169 36.409 51.769 116.622 81.92 55.467 18.091 99.84 57.060 124.587 107.406l0.569 1.252c24.405-25.884 58.482-42.439 96.484-43.804h0.228c38.229 1.365 72.306 17.92 96.654 43.748l0.057 0.057c25.316-51.598 69.689-90.567 123.676-108.26l1.479-0.398c80.213-30.151 108.658-56.889 113.778-81.92-100.807-31.915-216.804-50.347-337.067-50.347s-236.26 18.375-345.259 52.565l8.192-2.219z" />
<glyph unicode="&#xe96a;" glyph-name="video" d="M56.889 910.222v-910.222h910.222v910.222zM227.556 56.889h-113.778v113.778h113.778zM227.556 227.555h-113.778v113.778h113.778zM227.556 398.222h-113.778v113.778h113.778zM227.556 568.889h-113.778v113.778h113.778zM227.556 739.555h-113.778v113.778h113.778zM739.556 56.889h-455.111v796.444h455.111zM910.222 56.889h-113.778v113.778h113.778zM910.222 227.555h-113.778v113.778h113.778zM910.222 398.222h-113.778v113.778h113.778zM910.222 568.889h-113.778v113.778h113.778zM910.222 739.555h-113.778v113.778h113.778z" />
<glyph unicode="&#xe96b;" glyph-name="video-play" d="M910.222 853.333h-796.444c-62.862 0-113.778-50.916-113.778-113.778v0-568.889c0-62.862 50.916-113.778 113.778-113.778v0h796.444c62.862 0 113.778 50.916 113.778 113.778v0 568.889c0 62.862-50.916 113.778-113.778 113.778v0zM967.111 170.667c0-31.403-25.486-56.889-56.889-56.889v0h-796.444c-31.403 0-56.889 25.486-56.889 56.889v0 568.889c0 31.403 25.486 56.889 56.889 56.889v0h796.444c31.403 0 56.889-25.486 56.889-56.889v0zM341.333 711.111v-512l443.164 256-443.164 256zM398.222 297.529v315.164l272.498-157.582-272.498-157.582zM853.333 682.667h56.889v56.889h-56.889zM853.333 512h56.889v56.889h-56.889zM853.333 341.333h56.889v56.889h-56.889zM853.333 170.667h56.889v56.889h-56.889zM113.778 682.667h56.889v56.889h-56.889zM113.778 512h56.889v56.889h-56.889zM113.778 341.333h56.889v56.889h-56.889zM113.778 170.667h56.889v56.889h-56.889z" />
<glyph unicode="&#xe96c;" glyph-name="vimeo" d="M470.471 83.627c-62.578 0-113.778 50.062-152.462 147.342l-70.542 238.364c-25.6 84.196-45.511 99.556-52.907 106.382-20.025-8.306-37.262-17.863-53.248-29.013l0.91 0.569-21.049-14.791-76.8 86.471 147.342 120.604c37.547 35.612 83.285 62.976 134.087 78.962l2.446 0.683h19.911c51.2 0 117.191-26.169 141.653-151.324 7.964-49.493 14.791-88.747 20.48-118.898 3.413-21.618 7.396-42.098 12.516-62.009 18.204-88.178 36.409-100.124 36.409-100.124 20.423 19.968 38.286 42.325 53.191 66.788l0.853 1.479c23.552 30.151 41.415 65.991 51.314 104.96l0.455 1.991v11.378c0 18.204-3.982 25.6-28.444 25.6-19.228-0.853-37.262-4.722-54.101-11.207l1.195 0.398-55.751-19.342 18.204 56.889c44.373 134.827 131.413 203.093 258.844 203.093h9.671c98.418 0 152.462-56.889 152.462-166.116v-18.773c-3.982-86.471-62.578-196.267-180.338-336.782s-224.711-222.436-316.302-223.573zM186.027 633.173h5.12c56.889 0 88.747-79.076 109.796-147.911l69.973-235.52c18.773-48.356 52.338-109.227 98.418-109.227s138.809 35.84 272.498 200.818c111.502 129.138 168.391 227.556 168.391 301.511v17.636c0 96.711-51.2 109.227-95.573 109.227h-9.671c-3.186 0.171-6.94 0.284-10.695 0.284-77.483 0-144.1-46.364-173.682-112.868l-0.455-1.195h15.929c2.617 0.341 5.632 0.512 8.761 0.512 42.724 0 77.369-34.645 77.369-77.369 0-1.991-0.057-3.925-0.228-5.86v0.284-21.049c-12.117-49.892-33.564-93.582-62.578-131.072l0.569 0.796c-37.547-54.044-64.853-90.453-103.538-90.453-52.338 0-74.524 76.8-88.178 143.929-5.348 18.148-9.899 40.107-12.857 62.578l-0.228 2.276c-5.689 30.151-12.516 69.404-20.48 118.329-18.204 93.298-56.889 104.676-85.902 104.676h-7.396c-44.26-13.54-82.375-35.84-113.948-65.024l0.171 0.171-101.262-85.902 4.551-5.12c14.62 8.704 31.687 16.953 49.493 23.723l2.276 0.74z" />
<glyph unicode="&#xe96d;" glyph-name="volume-down" d="M398.222 625.778h-227.556v-341.333h245.76l323.129-258.276v857.884l-323.129-258.276zM398.222 341.333h-170.667v227.556h170.667zM455.111 583.68l227.556 182.044v-621.227l-227.556 182.044zM843.662 616.107l-40.391-40.391c30.834-30.891 49.892-73.5 49.892-120.604s-19.058-89.714-49.892-120.604v0l40.391-40.391c41.244 41.188 66.731 98.133 66.731 160.996s-25.486 119.808-66.731 160.996v0z" />
<glyph unicode="&#xe96e;" glyph-name="volume-up" d="M284.444 625.778h-227.556v-341.333h245.76l323.129-258.276v857.884l-323.129-258.276zM284.444 341.333h-170.667v227.556h170.667zM341.333 583.68l227.556 182.044v-621.227l-227.556 182.044zM810.098 696.32l-40.391-40.391c51.314-51.428 83.001-122.425 83.001-200.818s-31.687-149.39-83.001-200.818v0l40.391-40.391c61.668 61.781 99.84 147.001 99.84 241.209s-38.172 179.428-99.84 241.209v0zM729.884 616.107l-40.391-40.391c30.834-30.891 49.892-73.5 49.892-120.604s-19.058-89.714-49.892-120.604v0l40.391-40.391c41.244 41.188 66.731 98.133 66.731 160.996s-25.486 119.808-66.731 160.996v0zM890.88 777.102l-37.547-40.391c72.932-72.192 118.101-172.316 118.101-283.022s-45.17-210.83-118.044-282.965l-0.057-0.057 40.391-40.391c82.489 82.375 133.461 196.21 133.461 321.991s-51.029 239.616-133.461 321.991v0z" />
<glyph unicode="&#xe96f;" glyph-name="warning" d="M512 816.924c0.114 0 0.284 0 0.455 0 14.905 0 27.876-8.192 34.702-20.309l0.114-0.171 391.964-679.253c3.3-5.746 5.234-12.572 5.234-19.911 0-22.3-18.091-40.391-40.391-40.391-0.057 0-0.114 0-0.114 0h-783.929c-0.114 0-0.284 0-0.455 0-22.3 0-40.391 18.091-40.391 40.391 0 7.566 2.048 14.62 5.689 20.651l-0.114-0.171 391.964 678.684c6.94 12.288 19.911 20.48 34.816 20.48 0.171 0 0.341 0 0.512 0v0zM512 873.813c-0.228 0-0.455 0-0.683 0-35.726 0-66.901-19.228-83.854-47.9l-0.228-0.455-391.964-679.253c-8.306-13.938-13.198-30.72-13.198-48.64s4.892-34.702 13.483-49.095l-0.228 0.455c16.953-29.412 48.242-48.924 84.082-48.924 0.228 0 0.455 0 0.74 0h783.872c53.931 0.171 97.564 43.918 97.564 97.849 0 17.806-4.722 34.475-13.028 48.811l0.228-0.455-391.964 679.253c-17.18 29.127-48.356 48.356-84.082 48.356-0.228 0-0.455 0-0.74 0h0.057zM568.889 227.555c0-31.403-25.486-56.889-56.889-56.889v0 0c-31.403 0-56.889 25.486-56.889 56.889v0 0c0 31.403 25.486 56.889 56.889 56.889v0 0c31.403 0 56.889-25.486 56.889-56.889v0zM455.111 625.778h113.778v-284.444h-113.778v284.444z" />
<glyph unicode="&#xe970;" glyph-name="x" d="M882.347 92.729l-298.098 432.924 330.524 384.569h-75.662l-64.284-75.093-224.142-260.551-230.969 335.644h-262.827l64.853-92.729 284.444-411.876-349.298-405.618h75.662l306.631 356.693 227.556-331.093 15.929-25.6h262.258zM715.662 56.889l-544.996 796.444h118.329l544.427-796.444z" />
<glyph unicode="&#xe971;" glyph-name="zoom-in" d="M967.111 40.391l-203.093 202.524c55.524 64.398 89.316 148.821 89.316 241.209 0 204.516-165.831 370.347-370.347 370.347s-370.347-165.831-370.347-370.347c0-204.516 165.831-370.347 370.347-370.347 92.331 0 176.811 33.792 241.664 89.714l-0.455-0.398 202.524-203.093zM483.556 170.667c-172.828 0-312.889 140.060-312.889 312.889s140.060 312.889 312.889 312.889c172.828 0 312.889-140.060 312.889-312.889v0c0-172.828-140.060-312.889-312.889-312.889v0zM682.667 455.111h-170.667v-170.667h-56.889v170.667h-170.667v56.889h170.667v170.667h56.889v-170.667h170.667z" />
<glyph unicode="&#xe972;" glyph-name="zoom-level" d="M1024-15.36l-217.884 218.453c65.707 74.809 105.756 173.568 105.756 281.657 0 236.26-191.545 427.804-427.804 427.804s-427.804-191.545-427.804-427.804c0-236.26 191.545-427.804 427.804-427.804 108.089 0 206.791 40.107 282.112 106.212l-0.512-0.398 216.747-219.591zM113.778 483.555c0 204.231 165.547 369.778 369.778 369.778s369.778-165.547 369.778-369.778c0-204.231-165.547-369.778-369.778-369.778v0c-204.231 0-369.778 165.547-369.778 369.778v0zM512 659.342v-351.573l92.16 90.453 40.391-40.391-160.996-158.72-160.996 160.996 40.391 38.116 92.16-90.453v351.573l-92.16-90.453-40.391 40.391 160.996 158.72 160.996-160.996-40.391-38.116z" />
<glyph unicode="&#xe973;" glyph-name="zoom-out" d="M967.111 40.391l-203.093 202.524c55.524 64.398 89.316 148.821 89.316 241.209 0 204.516-165.831 370.347-370.347 370.347s-370.347-165.831-370.347-370.347c0-204.516 165.831-370.347 370.347-370.347 92.331 0 176.811 33.792 241.664 89.714l-0.455-0.398 202.524-203.093zM483.556 170.667c-172.828 0-312.889 140.060-312.889 312.889s140.060 312.889 312.889 312.889c172.828 0 312.889-140.060 312.889-312.889v0c0-172.828-140.060-312.889-312.889-312.889v0zM682.667 455.111h-398.222v56.889h398.222z" />
<glyph unicode="&#xe974;" glyph-name="bluesky" d="M341.333 26.169c-63.011 6.235-117.741 37.332-154.975 83.205l-0.332 0.422c-37.155 29.75-60.744 75.107-60.744 125.973 0 12.413 1.405 24.498 4.064 36.104l-0.209-1.082c12.656 32.999 36.043 59.516 65.81 75.854l0.75 0.377c-68.244 19.208-120.695 72.414-138.499 139.708l-0.31 1.377c-13.026 77.86-23.18 172.422-28.178 268.348l-0.267 6.425c0 70.542 29.013 99.556 52.907 113.778 56.889 27.307 133.689-7.964 190.009-49.493v0c95.146-80.988 175.215-176.098 237.835-282.693l2.805-5.165c65.348 110.592 145.415 204.611 238.966 283.078l1.674 1.367c56.889 41.529 134.827 76.8 189.44 49.493 24.462-11.947 53.476-40.96 53.476-113.778 0-26.738-15.929-236.658-26.169-274.773-18.715-69.251-72.296-122.644-140.27-140.771l-1.383-0.314c28.986-17.286 50.989-43.707 62.265-75.23l0.312-1.001c2.451-10.525 3.855-22.609 3.855-35.022 0-50.866-23.59-96.223-60.426-125.727l-0.318-0.246c-64.853-66.56-126.293-93.867-183.751-80.782-66.684 26.753-117.155 81.702-137.256 149.686l-0.415 1.638c-25.031-56.889-68.836-131.982-139.947-147.911-7.849-1.865-16.862-2.934-26.124-2.934-1.616 0-3.225 0.033-4.826 0.097l0.23-0.007zM512 284.444c19.911 0 26.738-18.773 31.289-32.996 13.084-37.547 51.769-151.324 120.036-166.684 36.978-8.533 80.782 13.084 130.276 64.284 26.156 20.381 42.819 51.885 42.819 87.281 0 5.939-0.469 11.769-1.372 17.454l0.082-0.628c-13.653 40.96-69.973 72.249-155.307 87.040v0c-13.565 2.329-23.757 14.002-23.757 28.056 0 1.746 0.157 3.455 0.458 5.114l-0.026-0.174c2.641 13.525 14.396 23.591 28.502 23.591 1.384 0 2.746-0.097 4.078-0.284l-0.153 0.018c89.316-15.36 195.129 5.12 223.573 106.951 7.964 28.444 24.462 230.969 24.462 259.413s-3.982 51.769-21.618 60.871-79.644-6.258-130.276-44.373c-100.639-86.261-183.546-189.872-244.757-306.645l-2.71-5.675c-5.214-8.886-14.721-14.758-25.6-14.758s-20.386 5.872-25.525 14.619l-0.075 0.139c-64.401 122.526-147.868 226.151-247.71 311.106l-1.463 1.214c-51.2 37.547-105.813 56.889-130.276 44.373s-21.618-38.116-21.618-60.871 16.498-230.969 23.893-259.413c29.013-105.244 134.827-122.311 224.142-105.244v0c1.346 0.221 2.897 0.348 4.478 0.348 14.135 0 25.909-10.108 28.488-23.49l0.029-0.182c0.252-1.435 0.395-3.088 0.395-4.774 0-14.759-11.021-26.945-25.282-28.776l-0.145-0.015c-85.333-14.791-141.653-46.080-154.738-87.040-1.027-5.626-1.615-12.1-1.615-18.711 0-35.119 16.574-66.366 42.326-86.348l0.249-0.185c50.062-51.2 93.867-72.249 130.844-64.284s85.333 65.991 119.467 166.684c5.12 13.653 10.809 34.133 32.996 32.996z" />
<glyph unicode="&#xe975;" glyph-name="threads" d="M518.827 902.827c-6.411 0.408-13.902 0.641-21.447 0.641-111.37 0-210.894-50.717-276.736-130.314l-0.484-0.603c-58.322-82.024-93.239-184.229-93.239-294.59 0-8.037 0.185-16.030 0.551-23.976l-0.041 1.126c-0.325-6.82-0.51-14.813-0.51-22.85 0-110.361 34.917-212.566 94.306-296.172l-1.067 1.582c66.64-80.489 166.581-131.382 278.409-131.382 6.926 0 13.806 0.195 20.636 0.58l-0.947-0.043c6.326-0.405 13.718-0.635 21.163-0.635 95.265 0 181.709 37.768 245.176 99.148l-0.098-0.095c46.030 43.643 74.671 105.234 74.671 173.514 0 32.615-6.535 63.704-18.367 92.029l0.585-1.578c-23.273 50.709-63.069 90.504-112.364 113.194l-1.414 0.584-11.947 5.12h-3.982v5.12c-6.827 126.862-73.956 196.836-189.44 197.973-2.388 0.109-5.187 0.171-8.001 0.171-61.942 0-116.857-30.090-150.923-76.451l-0.365-0.52 56.889-36.978c22.677 29.531 57.997 48.379 97.72 48.379 0.846 0 1.689-0.009 2.531-0.026l-0.126 0.002c2.745 0.229 5.941 0.359 9.167 0.359 33.283 0 63.326-13.875 84.659-36.156l0.041-0.043c15.581-19.253 26.184-43.133 29.511-69.285l0.071-0.688v-10.24h-9.671c-23.174 4.031-49.86 6.335-77.085 6.335-11.911 0-23.719-0.441-35.408-1.308l1.56 0.093c-106.951-2.844-176.924-68.267-172.373-155.307 1.974-44.999 26-83.989 61.473-106.631l0.536-0.32c29.166-18.855 64.808-30.062 103.068-30.062 4.77 0 9.499 0.174 14.181 0.517l-0.626-0.037c0.419-0.004 0.914-0.006 1.41-0.006 52.585 0 99.616 23.783 130.923 61.178l0.218 0.267c24.845 33.24 41.283 74.099 45.44 118.526l0.071 0.94v10.809l9.102-5.689c28.495-15.316 51.022-38.576 65.025-66.812l0.397-0.885c7.736-18.78 12.227-40.583 12.227-63.435 0-49.248-20.86-93.624-54.226-124.775l-0.099-0.092c-51.586-49.774-121.897-80.44-199.37-80.44-7.517 0-14.966 0.289-22.338 0.856l0.979-0.060c-5.752-0.393-12.468-0.617-19.236-0.617-91.763 0-173.916 41.148-229.013 106l-0.356 0.43c-49.221 69.914-78.666 156.838-78.666 250.639 0 8.891 0.265 17.72 0.786 26.479l-0.057-1.207c-0.464 7.553-0.729 16.382-0.729 25.272 0 93.802 29.445 180.726 79.597 252.034l-0.93-1.395c55.453 65.282 137.606 106.43 229.369 106.43 6.768 0 13.483-0.224 20.14-0.664l-0.904 0.048c5.624 0.364 12.194 0.571 18.813 0.571 93.109 0 176.632-41.043 233.465-106.024l0.309-0.361c26.737-33.933 47.456-74.013 59.725-117.632l0.578-2.404 63.147 14.791c-15.705 55.896-41.118 104.536-74.59 146.458l0.634-0.822c-68.384 80.879-169.916 131.887-283.361 131.887-6.584 0-13.128-0.172-19.628-0.511l0.909 0.038zM518.827 288.995c-1.129-0.038-2.455-0.059-3.787-0.059-28.563 0-54.818 9.883-75.532 26.416l0.244-0.188c-13.533 11.752-22.329 28.653-23.318 47.621l-0.007 0.166c0 38.684 26.738 81.92 113.778 87.040 8.401 0.604 18.202 0.948 28.084 0.948 30.346 0 59.935-3.246 88.437-9.41l-2.743 0.497h5.689v-6.258c-10.24-125.156-73.387-142.791-120.036-145.636h-12.516z" />
<glyph unicode="&#xe976;" glyph-name="phone" d="M849.92-9.102c-0.181-0.002-0.395-0.003-0.609-0.003-8.542 0-16.743 1.459-24.367 4.142l0.514-0.158c-371.364 115.684-658.004 402.324-771.469 765.446l-2.22 8.243c-2.965 8.036-4.681 17.318-4.681 27 0 14.088 3.632 27.327 10.010 38.833l-0.209-0.411c12.134 20.893 32.393 35.93 56.341 40.866l0.548 0.094 164.978 41.529c6.122 1.581 13.149 2.489 20.389 2.489 37.749 0 69.735-24.676 80.707-58.777l0.167-0.6c17.59-51.529 36.811-95.124 59.232-136.741l-2.344 4.759c5.804-11.132 9.209-24.312 9.209-38.287 0-30.812-16.551-57.758-41.247-72.433l-0.388-0.213c-6.73-4.077-11.539-10.751-13.056-18.598l-0.028-0.175c-0.515-1.919-0.811-4.121-0.811-6.393 0-5.245 1.577-10.121 4.283-14.181l-0.059 0.094c66.542-95.765 147.149-176.373 239.81-240.869l3.105-2.046c3.966-2.647 8.842-4.224 14.087-4.224 2.272 0 4.474 0.296 6.572 0.851l-0.179-0.040c8.023 1.546 14.697 6.354 18.704 12.96l0.070 0.124c14.735 25.732 42.030 42.789 73.31 42.789 14.842 0 28.787-3.84 40.896-10.582l-0.429 0.219c36.858-20.077 80.454-39.299 125.698-54.992l6.284-1.896c34.734-10.903 59.492-42.805 59.492-80.49 0-7.38-0.949-14.538-2.733-21.358l0.13 0.586-47.787-161.564c-5.709-23.393-20.598-42.558-40.54-53.826l-0.42-0.218c-11.685-7.201-25.774-11.599-40.865-11.945l-0.095-0.002zM299.236 862.435h-6.827l-165.547-41.529c-12.599-3.105-21.796-14.306-21.796-27.657 0-2.297 0.272-4.531 0.787-6.671l-0.039 0.194c110.056-355.285 384.271-629.5 731.7-737.453l7.856-2.103c1.946-0.475 4.179-0.747 6.477-0.747 13.35 0 24.552 9.197 27.616 21.601l0.041 0.195 41.529 165.547c0.614 2.182 0.967 4.688 0.967 7.277 0 12.071-7.673 22.351-18.408 26.227l-0.194 0.061c-54.754 16.88-101.479 36.186-145.983 59.191l4.898-2.302c-3.484 1.73-7.588 2.743-11.928 2.743-10.243 0-19.168-5.639-23.841-13.983l-0.071-0.138c-12.554-20.245-32.676-34.782-56.323-39.723l-0.566-0.099c-5.452-1.322-11.712-2.080-18.149-2.080-17.283 0-33.289 5.466-46.384 14.763l0.248-0.167c-102.676 71.139-188.851 157.858-257.22 257.728l-2.193 3.392c-9.13 12.847-14.596 28.853-14.596 46.136 0 6.437 0.758 12.696 2.19 18.695l-0.11-0.546c5.040 24.213 19.577 44.335 39.451 56.674l0.371 0.214c8.397 4.908 13.949 13.879 13.949 24.147 0 4.242-0.948 8.263-2.643 11.863l0.072-0.17c-20.702 39.605-40.009 86.33-55.211 134.87l-1.678 6.214c-4.168 10.476-14.22 17.746-25.97 17.746-0.871 0-1.733-0.040-2.584-0.118l0.109 0.008z" />
</font>
</defs>
</svg>
